Бабай (13 серій) (2015) 720p

Нові коментарі

Нова тема   Відповісти
Автор Повідомлення
Anonymous 







2016-05-02 21:38  
Бабай (13 серій) (2015) 720p

Бабай (13 серій) (2015) 720p


Жанр: анімація, комедія, фентезі, сімейний, пригодницький
Країна: Україна

Кінокомпанія: Укранімафільм
Режисер: Марина Медвідь
Актори: Рада Бєлова, Ірма Вітовська, Остап Ступка, Олеся Чичельницька, Мирослав Кувалдін, Борис Георгієвський, Володимир Моїсеєнко, Володимир Данилець, Катерина Буцька, Андрій Федюнчиков, Євген Пашин, Ольга Радчук, Олена Бліннікова, Андрій Середа
Над фільмом працювали
ТВОРЧА ГРУПА:
Режисер: Марина Медвідь
Автор сценарію: Вадим Шинкарьов
Генеральний продюсер: Едуард Ахрамович
Продюсер: Сергій Міндлін
Монтаж і спецефекти: Сергій Точин
Художник-постановник: Сергій Міндлін
Композитор: Тарас Болгак
Звукорежисер: Андрій Обод
Автори музики пісень: Олеся Чечельницька ("Пісенька Зорянки", "Пісенька звірят"), Сергій Чегодаєв, Мирослав Кувалдін
Виконавець пісень "Пісенька Зорянки", "Пісенька звірят": Олеся Чечельницька.

Ролі озвучили:
Рада Бєлова ... Світланка-Зорянка
Ірма Вітовська ... Відьма
Остап Ступка ... Чорт
Олеся Чечельницька ... Чарівна птаха Алконост, дівчатка-близнята, жахи, мусульманка
Мирослав Кувалдін ... Кіт
Борис Георгієвський ... Казкар, Бабай
Володимир Моїсеєнко ... Змій Горинич - перша та друга голова
Володимир Данилець ... Змій Горинич - третя голова
Катерина Буцька ... Великий хлопчик
Андрій Федюнчиков .. Миша
Євген Пашин ... Дід
Ольга Радчук ... Коза
Олена Бліннікова ... Кура, Баба
Андрій Середа ... Вій, перевізник

Закадровий голос диктора: Олеся Чечельницька, Борис Георгієвський
Виконавці пісні в селі: Фольклорний ансамбль «Лукині роси»
Вокал пісні "Вареники": Марія Нікуліна
Асистенти режисера: Алла Шебанова, Марія Венгерська
Ассистент художника-постановники: Софія Мельник
Фони: Сергій Міндлін
Персонажі: Марина Медвідь
Адаптація діалогів: Софія Андрухович
Тексти пісень: Анатолій Валевський, Наталя Картузова
Зйомка: Наталя Северіна, Світлана Кецкало
Асистент з монтажу: Ігор Точин
Спецефекти ЗD: Станіслав Марченко
Асистент з технічних питань: Віталій Арсенін
Директор знімальної групи: Жанна Мовчан
Художники–аніматори: Марина Медвідь, Ігор Бородавко, Дмитро Пічугін, Тетяна Пугачевська, Михайло Тітов, Валерія Левенко, Софія Мельник, Володимир Комчугов, Олег Маломуж, Марина Корольова, Ігор Ленго
Супервайзер процесів: Ольга Максюк
Художники: Ольга Максюк, Олександр Кривенда, Марина Іванова, Наталя Попова, Алла Шебанова, Микола Мельников, Дмитро Отроков, Марія Венгерська, Марина Мартиненко, Валентина Кузьмич, Євгенія Пономаренко, Юрій Снєжков, Галина Кугунова, Олена Келеберденко, Галина Назарчук, Наталя Голубець, Олексій Павленко, Лідія Малиновська, Наталя Тарабарова, Павло Чайка, Тетяна Кириченко, Олена Секунко, Ірина Чайка, Тетяна Рашкевич
Сюжет:
"Бабай" - це історія про нереальні пригоди, про мрії і бажання, сила яких перевершує будь-які очікування. Що відбудеться, коли у гонитву за мрією вступають герої народних міфів і казок? Відьма, Чорт, Вій, Змій Горинич - кожен з них, виявляється, потайки розмірковує про спокійне людське щастя. Але шлях до нього - складний та сповнений сюрпризами долі.
Цього разу бажання казкових персонажів може виконати чарівне яйце. Але отримати його не так просто. Змагання починаються! У кожного героя перегонів на шляху з’являється безстрашний, всемогутній Бабай, авторитет якого непередбачувано підриває маленька дівчинка Світланка-Зорянка. Поява відважної і хороброї дівчинки для багатьох залишається таємницею. Пригоди перетворюються на випробування. Хто зможе перемогти головного героя дитячих страхів? Чиї бажання здійсняться в результаті?


Вікова категорія: 6+

Тривалість: 1 серія: 06:30 (цілком серій: 13)
Перелік серій
01. Зухвале викрадення
02. Сюрприз з неба
03. Народження Світланки
04. Світланка творить дива
05. Світланка поспішає на допомогу
06. Світланка та Кіт-Скрипун
07. Друзі не залишать у біді
08. Загадки відгадки
09. Чарівний казан
10. Карти, шашки, три голови
11. Жадібний паромник
12. Таємний план
13. Добро перемагає зло
Фактично цей серіал є поділеним на 13 серій тим самим повнометражним фільмом 2014 року.

Якість: 720p
Відео:
кодек:
розмір кадру: 1280 х 720
бітрейт: 1370 ÷ 2003 Кбіт/с

Аудіо:
мова: українська
переклад: оригінал
кодек: 2.0
бітрейт: 192 Кбіт/с
MediaInfo
Код:
General
Complete name               : 01.Зухвале викрадення.mp4
Format                      : MPEG-4
Format profile              : Base Media / Version 2
Codec ID                    : mp42 (isom/mp42)
File size                   : 102 MiB
Duration                    : 6mn 30s
Overall bit rate mode       : Variable
Overall bit rate            : 2 198 Kbps
Encoded date                : UTC 2016-01-02 07:05:16
Tagged date                 : UTC 2016-01-02 07:05:16
gsst                        : 0
gstd                        : 390071

Video
ID                          : 1
Format                      : AVC
Format/Info                 : Advanced Video Codec
Format profile              : [email protected]
Format settings, CABAC      : Yes
Format settings, ReFrames   : 1 frame
Codec ID                    : avc1
Codec ID/Info               : Advanced Video Coding
Duration                    : 6mn 30s
Bit rate                    : 2 003 Kbps
Maximum bit rate            : 5 261 Kbps
Width                       : 1 280 pixels
Height                      : 720 pixels
Display aspect ratio        : 16:9
Frame rate mode             : Constant
Frame rate                  : 25.000 fps
Color space                 : YUV
Chroma subsampling          : 4:2:0
Bit depth                   : 8 bits
Scan type                   : Progressive
Bits/(Pixel*Frame)          : 0.087
Stream size                 : 93.1 MiB (91%)
Tagged date                 : UTC 2016-01-02 07:05:19
Color range                 : Limited
Color primaries             : BT.709
Transfer characteristics    : BT.709
Matrix coefficients         : BT.709

Audio
ID                          : 2
Format                      :
Format/Info                 : Advanced Audio Codec
Format profile              : LC
Codec ID                    : 40
Duration                    : 6mn 30s
Bit rate mode               : Variable
Bit rate                    : 192 Kbps
Maximum bit rate            : 203 Kbps
Channel(s)                  : 2 channels
Channel positions           : Front: L R
Sampling rate               : 44.1 KHz
Frame rate                  : 43.066 fps (1024 spf)
Compression mode            : Lossy
Stream size                 : 8.93 MiB (9%)
Title                       : IsoMedia File Produced by Google, 5-11-2011
Language                    : English
Encoded date                : UTC 2016-01-02 07:05:18
Tagged date                 : UTC 2016-01-02 07:05:19



Джерело:
Переглянути онлайн всі серії українською з офіційного каналу Укранімафільму


Золотий реліз (завантажене не впливає на рейтинг)
 Трекер:    Зареєстрований   

Завантажити український мультфільм



відео для новачків



 Зареєстрований:   2016-05-02 21:38
 Розмір:   1.07 GB 
 Оцінка мультсеріалу:   5/10 (Голосів: 21)
   
Xshot 
VIP


З нами з: 22.09.09
Востаннє: 22.01.17
Повідомлень: 1545

2016-05-03 10:32  
Невже "Гуртом" на офіційний постер потрапив?

P.S. До речі, на Толоці було загальноприйнято відео з youtube позначати якістю . Для чого ламати традиції?

Anonymous 







2016-05-03 10:44  
Xshot, це не офіційний постер Wink (1)
щодо традицій - http://toloka.to/t22184 -
Цитата:
=

Xshot 
VIP


З нами з: 22.09.09
Востаннє: 22.01.17
Повідомлень: 1545

2016-05-03 10:57  
igor911
Ну як знаєте. Можете скористатись пошуком, як мені не вірите. Він видає більше результатів саме на "".

Anonymous 







2016-05-03 10:57  
Ок, перейменую.
Ваш часовий пояс: GMT + 2 Години

Нова тема   Відповісти