Завантажити та скачати торренти українською


Антбой-2. Хлопчик-мураха і Помста червоної фурії / Antboy: Den Røde Furies hævn (2014) AVC

Нові коментарі

Нова тема   Відповісти
Автор Повідомлення
1101 
Свій


З нами з: 09.07.12
Востаннє: 24.11.16
Повідомлень: 62

2016-05-02 20:52  
Антбой-2. Хлопчик-мураха і Помста червоної фурії / Antboy: Den Røde Furies hævn (2014) AVC

Антбой-2. Хлопчик-мураха і Помста червоної фурії / Antboy: Den Røde Furies hævn (2014) AVC


Жанр: сімейний, пригоди
Країна: Данія



Кінокомпанія: Nimbus Film Productions
Режисер: Аск Хассельбах / Ask Hasselbalch
Актори: Оскар Дітц, Самуель Тінг Граф, Амалі Крусе Єнсен, Астрід Юнкер-Бензон, Йоханнес Джефріс Сьоренсен, Маркус Єсс Петерсен, Гектор Брьоггер Андерсен, Ніколас Бро та інші.

Сюжет:
Пілле щойно виповнилося 13, і він насолоджується життям супергероя. Хлопчик-мураха зараз популярніший, ніж будь-коли. Його заклятий ворог – Блоха – був переможений і тепер сидить за гратами. Але у другій частини йому доведеться боротися проти двох ворогів. Крістіан, новенький учень їхьої школи, стає суперником Пілле Норманна у боротьбі за любов Іди. До того ж, на Антбоя почала полювання якась невідома й невидима сила. Чи стане сил у хлопчика-мурахи здолати ідеальність першого та підступність другого?


Тривалість: 01:20:02
Якість:
Відео:
кодек:
розмір кадру: 720 х 388
бітрейт: 1633 кб/с

Аудіо:
мова: українська
переклад: одноголосий закадровий Зразок https://www.sendspace.com/file/25jpw0
кодек: MP3
бітрейт: 320 кб/с

Український трейлер


Джерело озвучення:


Перша частина (із субтитрами) - http://toloka.to/t53739
Скріншоти




Media Info
Format : Matroska
Format version : Version 2
File size : 1.11 GiB
Duration : 1h 20mn
Overall bit rate mode : Variable
Overall bit rate : 1 992 Kbps
Writing application : Lavf52.94.0
Writing library : Lavf52.94.0

Video
ID : 1
Format : AVC
Format/Info : Advanced Video Codec
Format profile : [email protected]
Format settings, CABAC : Yes
Format settings, ReFrames : 1 frame
Format settings, GOP : M=1, N=15
Codec ID : V_MPEG4/ISO/AVC
Duration : 1h 20mn
Bit rate mode : Variable
Bit rate : 1 633 Kbps
Maximum bit rate : 5 009 Kbps
Width : 720 pixels
Height : 388 pixels
Display aspect ratio : 1.856
Frame rate : 25.000 fps
Color space : YUV
Chroma subsampling : 4:2:0
Bit depth : 8 bits
Scan type : Progressive
Bits/(Pixel*Frame) : 0.234
Stream size : 935 MiB (82%)
Default : Yes
Forced : No

Audio
ID : 2
Format : MPEG Audio
Format version : Version 1
Format profile : Layer 3
Mode : Joint stereo
Mode extension : MS Stereo
Codec ID : A_MPEG/L3
Codec ID/Hint : MP3
Duration : 1h 20mn
Bit rate mode : Constant
Bit rate : 320 Kbps
Channel(s) : 2 channels
Sampling rate : 48.0 KHz
Compression mode : Lossy
Delay relative to video : 48ms
Stream size : 183 MiB (16%)
Default : Yes
Forced : No
Особиста оцінка: 10 - без зайвих вагань рекомендую всім!


Авторський реліз (завантажувати можна без реєстрації)
 Трекер:    Зареєстрований   

Завантажити / скачати фільм українською



відео для новачків



 Зареєстрований:   2016-05-02 21:04
 Розмір:   1.11 GB 
 Оцінка фільму:   5.1/10 (Голосів: 9)
   
goser 
Частий відвідувач


З нами з: 19.12.07
Востаннє: 10.12.16
Повідомлень: 41

2016-05-07 15:43  
Взагалі варто дивитись? Фільм такий прикольний як людина-мураха?
Ваш часовий пояс: GMT + 2 Години

Нова тема   Відповісти