Завантажити та скачати торренти українською


Нікчемний Я 2 / Despicable Me 2 (2013) AVC Ukr/Eng | Sub 2xEng

Нові коментарі

Нова тема   Відповісти
Автор Повідомлення
krigg070 
Відео Гуртом - фільмокрай
Відео Гуртом - фільмокрай


З нами з: 29.10.14
Востаннє: 07.12.16
Повідомлень: 351

2016-05-02 13:05  
Нікчемний Я 2 / Despicable Me 2 (2013) AVC Ukr/Eng | Sub 2xEng


Жанр: анімація, комедія, кримінальний, сімейний
Країна: США



Кінокомпанія: Priddis Music & ProSound Studio Band, Illumination Entertainment
Режисер: П'єр Коффін, Кріс Рено
Актори / Ролі озвучують: Стів Керелл, Рассел Бренд, Міранда Косґроув, Аль Пачіно, Мойзес Аріас, Крістен Віґ та інші

Сюжет:
Суперлиходій завжди лишатиметься суперлиходієм навіть після того, як став татком трьох маленьких дівчаток. Але зараз не до підступних планів. Адже його армія під загрозою. По одному зникають його вірні посіпаки. Крадія, звичайно, можна зрозуміти — кожен мріє, щоб у нього був такий гарнесенький, жовтенький, чудовий помічник. Та Ґру повинен припинити це неподобство!

Тривалість: 01:37:59
Якість: AVC
Відео:
кодек:
розмір кадру: 1 206 х 652
бітрейт: 3 369 кб/с

Аудіо # 1:
мова: українська
переклад: багатоголосий закадровий
кодек: 2.0 (стерео)
бітрейт: 192 кб/с

Аудіо # 2:
мова: англійська
переклад: оригінал
кодек: 5.1
бітрейт: 448 кб/с

Субтитри # 1 (Full):
мова: англійська
тип: програмні (м'які)
формат: *.srt

Субтитри # 2 (SDH):
мова: англійська
тип: програмні (м'які)
формат: *.srt
Скріншоти
MediaInfo
Код:
General
Unique ID                      : 224836993136273582685394000695230987429 (0xA926079EEC23A93B83B5B228AFD3FCA5)
Complete name                  : C:\Users\krigg\Videos\Despicable.Me.2.2013.AVC.ukr_eng.sub.2eng.mkv
Format                         : Matroska
Format version                 : Version 2
File size                      : 2.80 GiB
Duration                       : 1h 37mn
Overall bit rate               : 4 087 Kbps
Movie name                     : Нікчемний Я 2 (2013) AVC
Encoded date                   : UTC 2016-05-02 12:26:24
Writing application            : mkvmerge v3.3.0 ('Language') built on Mar 24 2010 14:59:24
Writing library                : libebml v0.8.0 + libmatroska v0.9.0

Video
ID                             : 1
Format                         : AVC
Format/Info                    : Advanced Video Codec
Format profile                 : [email protected]
Format settings, CABAC         : Yes
Format settings, ReFrames      : 10 frames
Codec ID                       : V_MPEG4/ISO/AVC
Duration                       : 1h 37mn
Bit rate                       : 3 365 Kbps
Width                          : 1 206 pixels
Height                         : 652 pixels
Display aspect ratio           : 1.85:1
Frame rate mode                : Constant
Frame rate                     : 23.976 (24000/1001) fps
Color space                    : YUV
Chroma subsampling             : 4:2:0
Bit depth                      : 8 bits
Scan type                      : Progressive
Bits/(Pixel*Frame)             : 0.179
Stream size                    : 2.30 GiB (82%)
Title                          : Despicable Me 2
Writing library                : core 138 r2358kMod 9e941d1
Encoding settings              : cabac=1 / ref=10 / deblock=1:-2:-1 / analyse=0x3:0x133 / me=umh / subme=11 / psy=1 / fade_compensate=0.00 / psy_rd=0.60:0.00 / mixed_ref=1 / me_range=32 / chroma_me=1 / trellis=2 / 8x8dct=1 / cqm=0 / deadzone=21,11 / fast_pskip=0 / chroma_qp_offset=-2 / threads=12 / lookahead_threads=3 / sliced_threads=0 / nr=0 / decimate=1 / interlaced=0 / bluray_compat=0 / constrained_intra=0 / bframes=12 / b_pyramid=2 / b_adapt=2 / b_bias=0 / direct=1 / weightb=1 / open_gop=0 / weightp=2 / keyint=250 / keyint_min=23 / scenecut=40 / intra_refresh=0 / rc_lookahead=70 / rc=crf / mbtree=0 / crf=17.3700 / qcomp=0.80 / qpmin=0 / qpmax=69 / qpstep=4 / vbv_maxrate=50000 / vbv_bufsize=62500 / crf_max=0.0 / nal_hrd=none / ip_ratio=1.40 / pb_ratio=1.30 / aq=3:0.90
Language                       : English
Default                        : No
Forced                         : No
Color range                    : Limited
Color primaries                : BT.709
Transfer characteristics       : BT.709
Matrix coefficients            : BT.709

Audio #1
ID                             : 2
Format                         : AC-3
Format/Info                    : Audio Coding 3
Mode extension                 : CM (complete main)
Format settings, Endianness    : Big
Codec ID                       : A_AC3
Duration                       : 1h 37mn
Bit rate mode                  : Constant
Bit rate                       : 192 Kbps
Channel(s)                     : 2 channels
Channel positions              : Front: L R
Sampling rate                  : 48.0 KHz
Frame rate                     : 31.250 fps (1536 spf)
Compression mode               : Lossy
Stream size                    : 135 MiB (5%)
Title                          : 2.0 @ 192 kbps - ICTV [MVO]
Language                       : Ukrainian
Default                        : Yes
Forced                         : No

Audio #2
ID                             : 3
Format                         : AC-3
Format/Info                    : Audio Coding 3
Mode extension                 : CM (complete main)
Format settings, Endianness    : Big
Codec ID                       : A_AC3
Duration                       : 1h 37mn
Bit rate mode                  : Constant
Bit rate                       : 448 Kbps
Channel(s)                     : 6 channels
Channel positions              : Front: L C R, Side: L R, LFE
Sampling rate                  : 48.0 KHz
Frame rate                     : 31.250 fps (1536 spf)
Compression mode               : Lossy
Stream size                    : 314 MiB (11%)
Title                          : 5.1 @ 448 kbps - Original
Language                       : English
Default                        : No
Forced                         : No

Text #1
ID                             : 4
Format                         : UTF-8
Codec ID                       : S_TEXT/UTF8
Codec ID/Info                  : UTF-8 Plain Text
Title                          : Full
Language                       : English
Default                        : No
Forced                         : No

Text #2
ID                             : 5
Format                         : UTF-8
Codec ID                       : S_TEXT/UTF8
Codec ID/Info                  : UTF-8 Plain Text
Title                          : SDH
Language                       : English
Default                        : No
Forced                         : No

Menu
00:00:00.000                   : en:Chapter 1
00:03:22.994                   : en:Chapter 2
00:08:04.734                   : en:Chapter 3
00:15:50.867                   : en:Chapter 4
00:18:28.232                   : en:Chapter 5
00:24:36.892                   : en:Chapter 6
00:30:50.724                   : en:Chapter 7
00:34:40.704                   : en:Chapter 8
00:40:48.279                   : en:Chapter 9
00:46:26.200                   : en:Chapter 10
00:51:23.122                   : en:Chapter 11
00:56:27.426                   : en:Chapter 12
01:00:00.472                   : en:Chapter 13
01:03:27.053                   : en:Chapter 14
01:08:44.078                   : en:Chapter 15
01:14:01.979                   : en:Chapter 16
01:18:08.058                   : en:Chapter 17
01:22:33.907                   : en:Chapter 18
01:27:09.099                   : en:Chapter 19
01:30:33.720                   : en:Chapter 20
Джерела та подяки: EX.UA
українська доріжка - sergiyko


 Трекер:    Зареєстрований   

Завантажити / скачати мультфільм українською



відео для новачків



 Зареєстрований:   2016-05-02 14:53
 Розмір:   2.8 GB 
 Оцінка мультфільму:   9.4/10 (Голосів: 13)
   
Інші релізи
   Нікчемний Я 2 / Despicable Me 2 (2013) 720p 3xUkr/Eng | Sub Eng igor911  23 / 0   5.17 GB   2016-09-09 08:58 
   Нікчемний Я 2 / Despicable Me 2 (2013) 2xUkr Gelios  9 / 0   1.46 GB   2016-09-08 23:04 
   Нікчемний Я 2 / Despicable Me 2 (2013) 1080p 3D [Half Over Under] 2xUkr/Eng | Sub Eng -VipeR-  6 / 0   7.44 GB   2016-05-04 13:16 
   Нікчемний Я 2 / Despicable Me 2 (2013) | Mic legos25  75 / 0   1.32 GB   2013-10-20 11:04 
Ваш часовий пояс: GMT + 2 Години

Нова тема   Відповісти