Завантажити та скачати торренти українською


Ласкаво просимо на борт / Bienvenue à bord (2011) 720p Ukr/Fre

Нові коментарі

Нова тема   Відповісти
Останній раз роздавалося baxlastik (2016-10-01)
Автор Повідомлення
krigg070 
Відео Гуртом - фільмокрай
Відео Гуртом - фільмокрай


З нами з: 29.10.14
Востаннє: 09.12.16
Повідомлень: 365

2016-05-01 15:38  
Ласкаво просимо на борт / Bienvenue à bord (2011) 720p Ukr/Fre



Жанр: комедія
Країна: Франція



Кінокомпанія: Same Player, Pathé, Appaloosa Films, Canal+, Cinémage 5 Développement
Режисер: Ерік Лавен
Актори: Франк Дюбоск, Валері Лімерсьє, Жерар Дармон, Луїза Ранієрі, Ліонель Астьєр та інші

Сюжет:
Ізабелла - PR-менеджер великої корпорації, одного разу вона робить страшну помилку, через яку стає коханкою свого начальника. Але раптово її бос вирішив зійти з дистанції. І через деякий час жінка починає зустрічатися з безробітним чоловіком на ім'я Ремі, який є не таким вже й поганим, як про нього думають всі навколишні.

Тривалість: 01:34:49
Якість:
Відео:
кодек:
розмір кадру: 1 280 х 536
бітрейт: 5 095 кб/с

Аудіо # 1:
мова: українська
переклад: багатоголосий закадровий
кодек: 2.0
бітрейт: 192 кб/с

Аудіо # 2:
мова: французька
переклад: оригінал
кодек: 5.1
бітрейт: 1 509 кб/с
Скріншоти
MediaInfo
Код:
General
Unique ID                      : 179845230683401456902566187303976062470 (0x874CEE77A01C95CAAE39612E6A2C4E06)
Complete name                  : C:\Users\krigg\Videos\Bienvenue.a.Bord.2011..720p..ukr_fre.mkv
Format                         : Matroska
Format version                 : Version 2
File size                      : 4.50 GiB
Duration                       : 1h 34mn
Overall bit rate               : 6 797 Kbps
Encoded date                   : UTC 2016-05-01 17:02:16
Writing application            : mkvmerge v3.3.0 ('Language') built on Mar 24 2010 14:59:24
Writing library                : libebml v0.8.0 + libmatroska v0.9.0

Video
ID                             : 1
Format                         : AVC
Format/Info                    : Advanced Video Codec
Format profile                 : [email protected]
Format settings, CABAC         : Yes
Format settings, ReFrames      : 5 frames
Codec ID                       : V_MPEG4/ISO/AVC
Duration                       : 1h 34mn
Bit rate                       : 5 095 Kbps
Width                          : 1 280 pixels
Height                         : 536 pixels
Display aspect ratio           : 2.40:1
Frame rate mode                : Constant
Frame rate                     : 24.000 fps
Color space                    : YUV
Chroma subsampling             : 4:2:0
Bit depth                      : 8 bits
Scan type                      : Progressive
Bits/(Pixel*Frame)             : 0.309
Stream size                    : 3.29 GiB (73%)
Writing library                : core 120 r2146 bcd41db
Encoding settings              : cabac=1 / ref=5 / deblock=1:0:0 / analyse=0x3:0x113 / me=umh / subme=7 / psy=1 / psy_rd=1.00:0.15 / mixed_ref=1 / me_range=16 / chroma_me=1 / trellis=1 / 8x8dct=1 / cqm=0 / deadzone=21,11 / fast_pskip=0 / chroma_qp_offset=-3 / threads=12 / sliced_threads=0 / nr=0 / decimate=1 / interlaced=0 / bluray_compat=0 / constrained_intra=0 / bframes=3 / b_pyramid=2 / b_adapt=1 / b_bias=0 / direct=1 / weightb=1 / open_gop=0 / weightp=2 / keyint=250 / keyint_min=24 / scenecut=40 / intra_refresh=0 / rc_lookahead=40 / rc=2pass / mbtree=1 / bitrate=5095 / ratetol=1.0 / qcomp=0.60 / qpmin=0 / qpmax=69 / qpstep=4 / cplxblur=20.0 / qblur=0.5 / ip_ratio=1.40 / aq=1:1.00
Language                       : French
Default                        : Yes
Forced                         : No

Audio #1
ID                             : 2
Format                         : AC-3
Format/Info                    : Audio Coding 3
Mode extension                 : CM (complete main)
Format settings, Endianness    : Big
Codec ID                       : A_AC3
Duration                       : 1h 34mn
Bit rate mode                  : Constant
Bit rate                       : 192 Kbps
Channel(s)                     : 2 channels
Channel positions              : Front: L R
Sampling rate                  : 48.0 KHz
Frame rate                     : 31.250 fps (1536 spf)
Compression mode               : Lossy
Stream size                    : 130 MiB (3%)
Title                          : 2.0 @ 192 kbps - ТЕТ [MVO]
Language                       : Ukrainian
Default                        : Yes
Forced                         : No

Audio #2
ID                             : 3
Format                         :
Format/Info                    : Digital Theater Systems
Mode                           : 16
Format settings, Endianness    : Big
Codec ID                       : A_DTS
Duration                       : 1h 34mn
Bit rate mode                  : Constant
Bit rate                       : 1 509 Kbps
Channel(s)                     : 6 channels
Channel positions              : Front: L C R, Side: L R, LFE
Sampling rate                  : 48.0 KHz
Frame rate                     : 93.750 fps (512 spf)
Bit depth                      : 24 bits
Compression mode               : Lossy
Stream size                    : 1 023 MiB (22%)
Title                          : 5.1 @ 1509 kbps - original
Language                       : French
Default                        : No
Forced                         : No
Джерело:
Особиста оцінка: 0 - не дивився


 Трекер:    Зареєстрований   

Завантажити / скачати фільм українською



відео для новачків



 Зареєстрований:   2016-05-01 19:44
 Розмір:   4.5 GB 
 Оцінка фільму:   5.5/10 (Голосів: 2)
   
Інші релізи
bot 
робот


З нами з: 30.09.07
Востаннє: 26.05.05
Повідомлень: 16036

2016-05-01 15:39  
Тему перенесено з Фільми в HD до форуму Анонси релізів


krigg070

bot 
робот


З нами з: 30.09.07
Востаннє: 26.05.05
Повідомлень: 16036

2016-05-01 19:44  
Тему перенесено з Анонси релізів до форуму Фільми в HD


krigg070

krigg070 
Відео Гуртом - фільмокрай
Відео Гуртом - фільмокрай


З нами з: 29.10.14
Востаннє: 09.12.16
Повідомлень: 365

2016-05-01 21:37  
SD
Ваш часовий пояс: GMT + 2 Години

Нова тема   Відповісти