Завантажити та скачати торренти українською


Чосонський чарівник / Joseon Magician / 조선마술사 (2015)

Нові коментарі

Нова тема   Відповісти
Автор Повідомлення
bogdan8249 
Відео Гуртом - фільмокрай
Відео Гуртом - фільмокрай


З нами з: 09.08.08
Востаннє: 10.12.16
Повідомлень: 1114

2016-04-29 09:03  
Чосонський чарівник / Joseon Magician / 조선마술사 (2015)

Чосонський чарівник / Joseon Magician / 조선마술사 (2015)


Жанр: романтичний, драма, історичний
Країна: Південна Корея



Кінокомпанія: Lotte Entertainment
Режисер: Kim Dae-Seung
Актори: Yoo Seung-Ho, Go Ara, Kwak Do-Won, Jo Yoon-Hee, Lee Kyoung-Young, Park Chul-Min

Сюжет:
У давні часи принцеса династії Чосон мандрувала до Китаю, бо її віддавали заміж за принца династії Цин. Вона не хоче одружуватися, але її родина не залишила їй вибору. Однієї ночі вона зустрічає неймовірного мага, який здатен творити дива. І доля сама створює для них найпрекрасніше з див.


Тривалість: 02:02:24
MediaInfo
General
Complete name : E:\Joseon Magician (2015) .avi
Format : AVI
Format/Info : Audio Video Interleave
File size : 1.52 GiB
Duration : 2h 2mn
Overall bit rate : 1 779 Kbps
Writing application : VirtualDubMod 1.5.10.3 | www.virtualdub-fr.org || (build 2550/release)
Writing library : VirtualDubMod build 2550/release

Video
ID : 0
Format : MPEG-4 Visual
Format profile : Advanced [email protected]
Format settings, BVOP : 2
Format settings, QPel : No
Format settings, GMC : No warppoints
Format settings, Matrix : Default (H.263)
Muxing mode : Packed bitstream
Codec ID :
Codec ID/Hint :
Duration : 2h 2mn
Bit rate : 1 448 Kbps
Width : 1 280 pixels
Height : 720 pixels
Display aspect ratio : 16:9
Frame rate : 29.970 (29970/1000) fps
Color space : YUV
Chroma subsampling : 4:2:0
Bit depth : 8 bits
Scan type : Progressive
Compression mode : Lossy
Bits/(Pixel*Frame) : 0.052
Stream size : 1.24 GiB (81%)
Writing library : 73

Audio
ID : 1
Format : MPEG Audio
Format version : Version 1
Format profile : Layer 3
Codec ID : 55
Codec ID/Hint : MP3
Duration : 2h 2mn
Bit rate mode : Constant
Bit rate : 320 Kbps
Channel(s) : 2 channels
Sampling rate : 44.1 KHz
Compression mode : Lossy
Stream size : 280 MiB (18%)
Alignment : Split accross interleaves
Interleave, duration : 33 ms (1.00 video frame)
Interleave, preload duratio : 500 ms
Якість:
Відео:
кодек:
розмір кадру: 1280 х 720
бітрейт: 1448 кб/с

Аудіо:
мова: українська
переклад: двоголосий закадровий
кодек: MP3
бітрейт: 320 кб/с

Джерело озвучення:
Скріншоти





Джерело:
Особиста оцінка: 10 - без зайвих вагань рекомендую всім!


Золотий реліз (завантажене не впливає на рейтинг)
 Трекер:    Зареєстрований   

Завантажити / скачати фільм українською



відео для новачків



 Зареєстрований:   2016-04-29 09:03
 Розмір:   1.52 GB 
 Оцінка фільму:   8.2/10 (Голосів: 19)
   
Форкуш 
VIP


З нами з: 03.02.10
Востаннє: 11.12.16
Повідомлень: 1549

2016-04-29 11:57  
Як фільм, бо ніде рейтигу нема.
bogdan8249 
Відео Гуртом - фільмокрай
Відео Гуртом - фільмокрай


З нами з: 09.08.08
Востаннє: 10.12.16
Повідомлень: 1114

2016-04-29 11:58  
Цитата:
Як фільм, бо ніде рейтигу нема.

Не знаю, я лише швидко проглянув.

Форкуш 
VIP


З нами з: 03.02.10
Востаннє: 11.12.16
Повідомлень: 1549

2016-04-29 12:37  
bogdan8249 написано:
Не знаю, я лише швидко проглянув.

bogdan8249 написано:
Особиста оцінка: 10 - без зайвих вагань рекомендую всім!

???

legos25 
Відео Гуртом - запис з ТБ
Відео Гуртом - запис з ТБ


З нами з: 02.02.10
Востаннє: 11.12.16
Повідомлень: 1106

2016-04-29 14:54  
Форкуш написано:
Як фільм, бо ніде рейтигу нема.


Konfucius 
Управління
Управління


З нами з: 30.09.07
Востаннє: 11.12.16
Повідомлень: 4748

2016-05-01 19:09  
Має бути оригінальна доріжка і mediainfo.

Скріншоти мають бути у форматі png.

bogdan8249 
Відео Гуртом - фільмокрай
Відео Гуртом - фільмокрай


З нами з: 09.08.08
Востаннє: 10.12.16
Повідомлень: 1114

2016-05-02 15:52  
Цитата:
Має бути оригінальна доріжка і mediainfo.

Оригінальна відсутня. А навіщо вона так сильно потрібна? Раніше якось необов'язково було додавати оригінальну доріжку.

gmorunov 
Новенький


З нами з: 18.07.10
Востаннє: 11.12.16
Повідомлень: 13

2016-05-03 13:50  
Стрічка начебто про кохання і інші гострі почуття, коштовні декорації, яскраві костюми і чудова природа, але особисто мені кіно здалося відверто нудним - аж занадто наївний сюжет. Можливо цільова аудіторія стрічки - корейскі дівчатка-підлітки 8-12 років.
Nifilim 
Новенький


З нами з: 03.10.11
Востаннє: 10.12.16
Повідомлень: 3

2016-05-03 14:16  
bogdan8249
Бо є такі хто хоче в мові оригіналу глянути )

Kiara 
Свій


З нами з: 18.08.10
Востаннє: 14.09.16
Повідомлень: 94

2016-05-31 12:33  
От дякую! Побільше б корейських фільмів! Вони дуже цікаві, я їх дуже люблю. Якісні фільми і взагаліл.. люблю корейські фільми ^_^
Трохи емоцій бракує в озвученні але і за це дякуєм.. (добре для тих хто не любить читати субтитри)
а для мене.. я згідна з попереднім повідомленням - добре було б, все таки, субтитри, бо і я люблю слухати оригінальною мовою.. Корейські фільми, особливо під старовину, досить жваві.

Ваш часовий пояс: GMT + 2 Години

Нова тема   Відповісти