Завантажити та скачати торренти українською


Голодні ігри: Переспівниця. Частина 2 / The Hunger Games: Mockingjay - Part 2 (2015) 1080p 3D [Half OverUnder] Ukr/Eng | Sub Eng

Нові коментарі

Нова тема   Відповісти
Автор Повідомлення
-VipeR- 
VIP


З нами з: 17.07.08
Востаннє: 07.12.16
Повідомлень: 275

2016-04-25 12:06  
Голодні ігри: Переспівниця. Частина 2 / The Hunger Games: Mockingjay - Part 2 (2015) 1080p 3D [Half OverUnder] Ukr/Eng | Sub Eng

Голодні ігри: Переспівниця. Частина 2 / The Hunger Games: Mockingjay - Part 2 (2015) 1080p 3D [Half OverUnder] Ukr/Eng | Sub Eng


Жанр: драма, пригоди, трилер, фантастика
Країна: США



Кінокомпанія: Color Force, Lionsgate, Studio Babelsberg
Режисер: Френсіс Лоуренс
Актори: Дженніфер Лоуренс, Елізабет Бенкс, Джуліанна Мур, Ліам Гемсворт, Сем Клафлін, Джош Гатчерсон, Вуді Гаррельсон, Стенлі Туччі, Філіп Сеймур Гоффман, Роберт Кнеппер та інші.

Сюжет:
Разом з народом Панему, Катнісс протистоїть Президентові Сноу, у фінальній битві повномасштабної революційної війни. Вона об'єднується не тільки зі своїми друзями, Гейлом, Крессідою, Фінніком і Пітою, а і зі службовцями тринадцятого району, які ризикували життям заради громадян Панему. Катнісс хоче влаштувати замах на Президента Сноу, який став одержимий ідеєю знищення дівчини. Незважаючи на те, що повстанці контролюють більшу частину Панему, Евердін повинна пройти останнє випробування, щоб перемогти в "грі", і захопити Капітолій. Весь цей час вона ризикує життями своїх друзів і близьких.


Тривалість: 02:16:57
Якість: 1080p 3D [Half OverUnder]
Відео:
кодек:
розмір кадру: 1920 х 1080
бітрейт: 6750 кб/с

Аудіо # 1:
мова: українська
переклад: професійний дубльований
кодек: 2.0
бітрейт: 192 кб/с

Аудіо # 2:
мова: англійська
переклад: оригінал
кодек: -HD 5.1
бітрейт: 755 кб/с

Субтитри:
мова: англійська
тип: програмні (м'які)
формат: *.srt
MediaInfo
Код:
General
Unique ID                      : 212541474298633210476031368996555493111 (0x9FE5FFBCFEE301D4987F53E12ED68EF7)
Complete name                  : D:\3D\Художні\The Hunger Games.Mockingjay - Part 2 (2015) 1080p 3D [HalfOverUnder] [UKR ENG] [Hurtom].mkv
Format                         : Matroska
Format version                 : Version 4 / Version 2
File size                      : 7.37 GiB
Duration                       : 2h 16mn
Overall bit rate               : 7 699 Kbps
Movie name                     : Голодні ігри: Переспівниця. Частина 2 у 3D
Encoded date                   : UTC 2016-04-25 09:33:42
Writing application            : mkvmerge v8.8.0 ('Wind at my back') 64bit
Writing library                : libebml v1.3.3 + libmatroska v1.4.4

Video
ID                             : 1
Format                         : AVC
Format/Info                    : Advanced Video Codec
Format profile                 : [email protected]
Format settings, CABAC         : Yes
Format settings, ReFrames      : 4 frames
Codec ID                       : V_MPEG4/ISO/AVC
Duration                       : 2h 16mn
Bit rate                       : 6 750 Kbps
Width                          : 1 920 pixels
Height                         : 1 080 pixels
Display aspect ratio           : 16:9
Frame rate mode                : Constant
Frame rate                     : 23.976 (24000/1001) fps
Color space                    : YUV
Chroma subsampling             : 4:2:0
Bit depth                      : 8 bits
Scan type                      : Progressive
Bits/(Pixel*Frame)             : 0.136
Stream size                    : 6.46 GiB (88%)
Writing library                : core 148 r2638 7599210
Encoding settings              : cabac=1 / ref=4 / deblock=1:-1:-1 / analyse=0x3:0x133 / me=umh / subme=7 / psy=1 / psy_rd=1.00:0.00 / mixed_ref=1 / me_range=30 / chroma_me=1 / trellis=1 / 8x8dct=1 / cqm=2 / deadzone=21,11 / fast_pskip=0 / chroma_qp_offset=-2 / threads=12 / lookahead_threads=3 / sliced_threads=0 / slices=4 / nr=0 / decimate=1 / interlaced=0 / bluray_compat=0 / constrained_intra=0 / bframes=5 / b_pyramid=2 / b_adapt=2 / b_bias=0 / direct=3 / weightb=1 / open_gop=0 / weightp=2 / keyint=240 / keyint_min=23 / scenecut=40 / intra_refresh=0 / rc_lookahead=50 / rc=2pass / mbtree=1 / bitrate=6750 / ratetol=1.0 / qcomp=0.60 / qpmin=1 / qpmax=69 / qpstep=4 / cplxblur=20.0 / qblur=0.5 / vbv_maxrate=62500 / vbv_bufsize=78125 / nal_hrd=none / filler=0 / ip_ratio=1.40 / aq=1:1.00
Language                       : English
Default                        : Yes
Forced                         : No

Audio #1
ID                             : 2
Format                         : AC-3
Format/Info                    : Audio Coding 3
Mode extension                 : CM (complete main)
Format settings, Endianness    : Big
Codec ID                       : A_AC3
Duration                       : 2h 16mn
Bit rate mode                  : Constant
Bit rate                       : 192 Kbps
Channel(s)                     : 2 channels
Channel positions              : Front: L R
Sampling rate                  : 48.0 KHz
Frame rate                     : 31.250 fps (1536 spf)
Compression mode               : Lossy
Stream size                    : 188 MiB (2%)
Default                        : Yes
Forced                         : Yes

Audio #2
ID                             : 3
Format                         :
Format/Info                    : Digital Theater Systems
Mode                           : 16
Format settings, Endianness    : Big
Codec ID                       : A_DTS
Duration                       : 2h 16mn
Bit rate mode                  : Constant
Bit rate                       : 755 Kbps
Channel(s)                     : 6 channels
Channel positions              : Front: L C R, Side: L R, LFE
Sampling rate                  : 48.0 KHz
Frame rate                     : 93.750 fps (512 spf)
Bit depth                      : 24 bits
Compression mode               : Lossy
Stream size                    : 739 MiB (10%)
Language                       : English
Default                        : No
Forced                         : No

Text #1
ID                             : 4
Format                         : UTF-8
Codec ID                       : S_TEXT/UTF8
Codec ID/Info                  : UTF-8 Plain Text
Duration                       : 2h 4mn
Bit rate                       : 50 bps
Count of elements              : 1485
Stream size                    : 46.5 KiB (0%)
Language                       : English
Default                        : Yes
Forced                         : No

Text #2
ID                             : 5
Format                         : UTF-8
Codec ID                       : S_TEXT/UTF8
Codec ID/Info                  : UTF-8 Plain Text
Duration                       : 2h 4mn
Bit rate                       : 47 bps
Count of elements              : 1350
Stream size                    : 42.9 KiB (0%)
Language                       : English
Default                        : No
Forced                         : No
Скріншоти
Джерело:
Особиста оцінка: 8 - мені сподобалося

За українську доріжку подяка пану Covenant

Відео для перегляду на 3D обладнанні!


 Трекер:    Зареєстрований   

Завантажити / скачати фільм українською



відео для новачків



 Зареєстрований:   2016-04-25 12:06
 Розмір:   7.37 GB 
 Оцінка фільму:   7.9/10 (Голосів: 9)
   
QWERTYJJJJJJ 
Поважний учасник


З нами з: 06.11.12
Востаннє: 07.12.16
Повідомлень: 198

2016-05-03 10:48  
Що за звук?
-VipeR- 
VIP


З нами з: 17.07.08
Востаннє: 07.12.16
Повідомлень: 275

2016-05-04 15:32  
QWERTYJJJJJJ написано:
Що за звук?

Line мабуть, але ніхто не вказував і я змовчу Happy

Ваш часовий пояс: GMT + 2 Години

Нова тема   Відповісти