Завантажити та скачати торренти українською


Vivienne Mort - Готика [EP] (2014) [FLAC] | Alternative Rock

Нові коментарі

Нова тема   Відповісти
Автор Повідомлення
kolpavel 
VIP


З нами з: 04.05.14
Востаннє: 06.12.16
Повідомлень: 1059

2016-04-24 14:14  
Vivienne Mort - Готика [EP] (2014) [FLAC] | Alternative Rock

Vivienne Mort - Готика [EP] (2014) [FLAC] | Alternative Rock


Стиль: Alternative Rock
Країна, місто: Україна, Київ
Сайти: Офіційний сайт
Видавець: Moon Records
Виконавці:
Даніела Заюшкіна — вокал, музика, тексти;
Гліб Проців — ударні;
Олександр Лежньов — клавішні;
Влад Бутенко — бас-гітара;
Олексій Дудченко - звукорежисер.

Пісні:
    01. Персефона - 04:02
    02. Університет - 02:54
    03. Готика - 03:44
    04. Маріула - 04:32
    05. Риба - 03:14


Тривалість: 00:18:25
Мова: українська
Аудіо-кодек: FLAC
Бітрейт: 777 - 929 кб/с
Джерело: трекер
Додаткова інформація:
EAC
xact Audio Copy V1.0 beta 3 from 29. August 2011

Отчёт EAC об извлечении, выполненном 13. апреля 2016, 15:37

Vivienne Mort / Готика (EP)

Дисковод: MATSHITADVD-RAM UJ8B0 Adapter: 1 ID: 0

Режим чтения : Достоверность
Использование точного потока : Да
Отключение кэша аудио : Да
Использование указателей C2 : Нет

Коррекция смещения при чтении : 102
Способность читать области Lead-in и Lead-out : Нет
Заполнение пропущенных сэмплов тишиной : Да
Удаление блоков с тишиной в начале и конце : Нет
При вычислениях CRC использовались нулевые сэмплы : Да
Интерфейс : Встроенный Win32-интерфейс для Win NT/2000
Обработка зазоров : Добавлено к предыдущему треку

Выходной формат : Пользовательский кодировщик
Выбранный битрейт : 896 kBit/s
Качество : Высокий
Добавление ID3-тега : Нет
Утилита сжатия : D:\Programs\Foobar2000 и iTunesEncode\qaac_2.55\qaac_2.55\x64\refalac64.exe
Дополнительные параметры : -s --ignorelength --artist "%artist%" --title "%title%" --album "%albumtitle%" --date "%year%" --track "%tracknr%" --genre "%genre%" -o %dest% %source%

TOC извлечённого CD

Трек | Старт | Длительность | Начальный сектор | Конечный сектор
---------------------------------------------------------------------
1 | 0:00.00 | 4:02.03 | 0 | 18152
2 | 4:02.03 | 2:53.70 | 18153 | 31197
3 | 6:55.73 | 3:43.53 | 31198 | 47975
4 | 10:39.51 | 4:31.35 | 47976 | 68335
5 | 15:11.11 | 3:13.63 | 68336 | 82873

Трек 1

Имя файла I:\Maxim\Music\ALAC\Vivienne Mort\2014 — Готика (EP)\01. Персефона.wav

Длина предзазора 0:00:02.00

Пиковый уровень 100.0 %
Скорость извлечения 1.0 X
Качество трека 99.9 %
CRC теста 5D588ACF
CRC копии 5D588ACF
Трек не обнаружен в базе AccurateRip
Копирование... OK

Трек 2

Имя файла I:\Maxim\Music\ALAC\Vivienne Mort\2014 — Готика (EP)\02. Університет.wav

Пиковый уровень 100.0 %
Скорость извлечения 1.0 X
Качество трека 99.9 %
CRC теста A825F149
CRC копии A825F149
Трек не обнаружен в базе AccurateRip
Копирование... OK

Трек 3

Имя файла I:\Maxim\Music\ALAC\Vivienne Mort\2014 — Готика (EP)\03. Готика.wav

Пиковый уровень 100.0 %
Скорость извлечения 1.3 X
Качество трека 100.0 %
CRC теста E8B35CA5
CRC копии E8B35CA5
Трек не обнаружен в базе AccurateRip
Копирование... OK

Трек 4

Имя файла I:\Maxim\Music\ALAC\Vivienne Mort\2014 — Готика (EP)\04. Маріула.wav

Пиковый уровень 100.0 %
Скорость извлечения 1.5 X
Качество трека 100.0 %
CRC теста CC18DF92
CRC копии CC18DF92
Трек не обнаружен в базе AccurateRip
Копирование... OK

Трек 5

Имя файла I:\Maxim\Music\ALAC\Vivienne Mort\2014 — Готика (EP)\05. Риба.wav

Пиковый уровень 98.8 %
Скорость извлечения 1.5 X
Качество трека 100.0 %
CRC теста 83C3A1A7
CRC копии 83C3A1A7
Трек не обнаружен в базе AccurateRip
Копирование... OK

Ни одного трека нет в базе AccurateRip

Ошибок не произошло

Конец отчёта

==== Контрольная сумма отчёта B6D3EF6BB9137BE8400F2BC678E2622B26C1F09263CF4C2AD111AE7829F406DB ====
(.CUE)
REM GENRE "Indie Rock, Alternative Rock, Folk, Baroque Pop"
REM DATE 2014
REM DISCID 30045005
REM COMMENT "ExactAudioCopy v1.0b3"
PERFORMER "Vivienne Mort"
TITLE "Готика (EP)"
FILE "01. Персефона.wav" WAVE
TRACK 01 AUDIO
TITLE "Персефона"
PERFORMER "Vivienne Mort"
FLAGS DCP
INDEX 01 00:00:00
FILE "02. Університет.wav" WAVE
TRACK 02 AUDIO
TITLE "Університет"
PERFORMER "Vivienne Mort"
FLAGS DCP
INDEX 01 00:00:00
FILE "03. Готика.wav" WAVE
TRACK 03 AUDIO
TITLE "Готика"
PERFORMER "Vivienne Mort"
FLAGS DCP
INDEX 01 00:00:00
FILE "04. Маріула.wav" WAVE
TRACK 04 AUDIO
TITLE "Маріула"
PERFORMER "Vivienne Mort"
FLAGS DCP
INDEX 01 00:00:00
FILE "05. Риба.wav" WAVE
TRACK 05 AUDIO
TITLE "Риба"
PERFORMER "Vivienne Mort"
FLAGS DCP
INDEX 01 00:00:00
Лог якостi
fooCDtect - foobar2000 + auCDtect, baralgin.

auCDtect: CD records authenticity detector, version 0.8.2
Copyright (c) 2004 Oleg Berngardt. All rights reserved.
Copyright (c) 2004 Alexander Djourik. All rights reserved.

mode: 0

===========================================
Track: Персефона
Quality: CDDA 100%
===========================================
Track: Університет
Quality: CDDA 100%
===========================================
Track: Готика
Quality: CDDA 99%
===========================================
Track: Маріула
Quality: CDDA 100%
===========================================
Track: Риба
Quality: CDDA 100%
===========================================


Один з найбільш цікавих та нешаблонних українських колективів сучасності – київський гурт Vivienne Mort, вчора, 4 листопада 2014 р., виклав на сторінках своїх офіційних соцмереж новий міні-альбом під назвою «Готика», який ще раніше можна було придбати у електронному вигляді завдяки сервісам iTunes та Google play, або ж на фізичному компакті, залишивши заявку на сторінках вищезгаданих спільнот. Не зважаючи на це, якщо ви дійсно бажаєте підтримати розвиток сучасної української музики, обов’язково придбайте новий матеріал за символічну плату.
Розглядаючи саму «Готику», зазначимо, що не варто сприймати назву EP надто буквально. Напевно ніхто зі впевненістю не запише п’ять композицій нового релізу до якогось певного музичного жанру, та напевно робити цього і не варто. Музика Вів’єн немов існує в імпровізованому паралельному всесвіті, час від часу торкаючись нашого з вами виміру через свої релізи. Тож наразі ви маєте чудову нагоду ще раз зануритись у казковий світ Vivienne Mort, відкривши та зрозумівши для себе свою власну «Готику».
«Вам не здається, що ми наповнюємо кожен новий день різноманітними справами і доки виконуємо їх, втрачаємо щось єдине найважливіше? Ми задоволені або засмучені тим, наскільки вдало виконали власні справи, а в цей час найголовніше чекає і лишається нерозкритим. Дня дуже мало, щовечора настає сон. Готика – це темна ніч, пригнічені бажання, приклад бездарно прожитого життя, пробіганого, витраченого у спробах «to keep up with Johns», підлаштованого під соціальні показники часу. Які наші справжні бажання? Чому ми так хочемо? Хто так хоче? Виходь з готики. Все, що є навколо – це лише декорації, щоб ти жив. Один єдиний ти», – розповіли в анотації до альбому музиканти.
Пропрацювши над новим матеріалом весь останній рік, учасники Vivienne Mort написали набагато більше п’яти представлених композицій, проте за їхніми словами, трек-лист цього міні-альбому сформувався самостійно, як своєрідний музичний пазл, і саме ці пісні злилися в єдину гармонію настрою, посилу і музики.
Саундпродюсером «Готики» виступив Юрій Акоп, який запропонував писати наживо кожен звук і музичний інструмент платівки, серед яких були раніше нехарактерні для гурту акордеон, саксофон, труба та тромбон. «Готика» взагалі писалась на п’яти різних студіях. Ми співпрацювали з новими музикантами, і, на відміну від попередніх записів, до цього ми поставилися дуже ретельно і не випускали його в світ, доки нам не сподобається все. Тому він і створювався так довго, тому і надходять скарги, що пісень всього п’ять», – пояснила вокалістка гурту Даніела Заюшкіна.

Якщо Ви справді бажаєте підтримати українське - після прослуховування, якщо музика вам сподобалась, придбайте ліцензійний диск. Підтримаймо вітчизняних виконавців!


Срібний реліз (на рейтинг впливає 50% завантаженого)
 Трекер:    Зареєстрований   

Завантажити / скачати українську музику



відео для новачків



 Зареєстрований:   2016-04-24 14:14
 Розмір:   116 MB 
 Оцінка музики:   10/10 (Голосів: 5)
   
kolpavel 
VIP


З нами з: 04.05.14
Востаннє: 06.12.16
Повідомлень: 1059

2016-04-24 14:15  
Конвертував з ALAC (*.m4a) у FLAC AIMP V4.02, build 1711.

Дякую Fraps25 за релiз в ALAC.

shanjin 
VIP


З нами з: 17.04.13
Востаннє: 06.12.16
Повідомлень: 330

2016-04-24 18:26  
Вийшло гарно та ексцентрично)
Ваш часовий пояс: GMT + 2 Години

Нова тема   Відповісти