Завантажити та скачати торренти українською


Vivienne Mort - Rósa (EP) (2016) [FLAC] | Indie Rock

Нові коментарі

Нова тема   Відповісти
Автор Повідомлення
kolpavel 
VIP


З нами з: 04.05.14
Востаннє: 11.12.16
Повідомлень: 1062

2016-04-24 13:24  
Vivienne Mort - Rósa (EP) (2016) [FLAC] | Indie Rock

Vivienne Mort - Rósa (EP) (2016) [FLAC] | Indie Rock


Стиль: Indie Rock
Країна, місто: Україна, Київ
Сайти: Офіційний сайт
Видавець: Enjoy Records
Виконавці:
Даніела Заюшкіна – вокал, музика, тексти
Олександр Лежньов – клавішні
Олексій Дудченко – звукорежисер

Пісні:
    01. Intro - 01:23
    02. Той, хто рятує імена - 03:54
    03. Outro - 00:42
    04. Хто ти такий? - 03:27
    05. HOW - 05:19
    06. Пам`ятаєш - 05:39
    07. Пташечка - 04:12


Тривалість: 00:25:47
Мова: українська
Аудіо-кодек: FLAC
Бітрейт: 732 - 907 кб/с
Джерело: трекер
Додаткова інформація:
EAC
Exact Audio Copy V1.0 beta 3 from 29. August 2011

Отчёт EAC об извлечении, выполненном 16. апреля 2016, 22:50

Vivienne Mort / Rósa (EP)

Дисковод: MATSHITADVD-RAM UJ8B0 Adapter: 1 ID: 0

Режим чтения : Достоверность
Использование точного потока : Да
Отключение кэша аудио : Да
Использование указателей C2 : Нет

Коррекция смещения при чтении : 102
Способность читать области Lead-in и Lead-out : Нет
Заполнение пропущенных сэмплов тишиной : Да
Удаление блоков с тишиной в начале и конце : Нет
При вычислениях CRC использовались нулевые сэмплы : Да
Интерфейс : Встроенный Win32-интерфейс для Win NT/2000
Обработка зазоров : Добавлено к предыдущему треку

Выходной формат : Пользовательский кодировщик
Выбранный битрейт : 896 kBit/s
Качество : Высокий
Добавление ID3-тега : Нет
Утилита сжатия : D:\Programs\Foobar2000 и iTunesEncode\qaac_2.55\qaac_2.55\x64\refalac64.exe
Дополнительные параметры : -s --ignorelength --artist "%artist%" --title "%title%" --album "%albumtitle%" --date "%year%" --track "%tracknr%" --genre "%genre%" -o %dest% %source%

TOC извлечённого CD

Трек | Старт | Длительность | Начальный сектор | Конечный сектор
---------------------------------------------------------------------
1 | 0:00.00 | 1:24.50 | 0 | 6349
2 | 1:24.50 | 3:56.25 | 6350 | 24074
3 | 5:21.00 | 0:43.33 | 24075 | 27332
4 | 6:04.33 | 3:29.25 | 27333 | 43032
5 | 9:33.58 | 5:21.08 | 43033 | 67115
6 | 14:54.66 | 5:41.25 | 67116 | 92715
7 | 20:36.16 | 4:11.50 | 92716 | 111590

Трек 1

Имя файла I:\Maxim\Music\ALAC\Vivienne Mort\2016 — Rósa (EP)\01. Intro.wav

Длина предзазора 0:00:02.00

Пиковый уровень 99.1 %
Скорость извлечения 0.6 X
Качество трека 99.8 %
CRC теста DF27D3D3
CRC копии DF27D3D3
Трек не обнаружен в базе AccurateRip
Копирование... OK

Трек 2

Имя файла I:\Maxim\Music\ALAC\Vivienne Mort\2016 — Rósa (EP)\02. Той, хто рятує імена.wav

Пиковый уровень 99.1 %
Скорость извлечения 1.2 X
Качество трека 100.0 %
CRC теста 04E2D3A5
CRC копии 04E2D3A5
Трек не обнаружен в базе AccurateRip
Копирование... OK

Трек 3

Имя файла I:\Maxim\Music\ALAC\Vivienne Mort\2016 — Rósa (EP)\03. Outro.wav

Пиковый уровень 99.1 %
Скорость извлечения 0.7 X
Качество трека 100.0 %
CRC теста B77A2773
CRC копии B77A2773
Трек не обнаружен в базе AccurateRip
Копирование... OK

Трек 4

Имя файла I:\Maxim\Music\ALAC\Vivienne Mort\2016 — Rósa (EP)\04. Хто ти такий.wav

Пиковый уровень 99.1 %
Скорость извлечения 1.3 X
Качество трека 100.0 %
CRC теста 9478FAD3
CRC копии 9478FAD3
Трек не обнаружен в базе AccurateRip
Копирование... OK

Трек 5

Имя файла I:\Maxim\Music\ALAC\Vivienne Mort\2016 — Rósa (EP)\05. How.wav

Пиковый уровень 99.1 %
Скорость извлечения 1.5 X
Качество трека 100.0 %
CRC теста 245AE84C
CRC копии 245AE84C
Трек не обнаружен в базе AccurateRip
Копирование... OK

Трек 6

Имя файла I:\Maxim\Music\ALAC\Vivienne Mort\2016 — Rósa (EP)\06. Пам'ятаєш.wav

Пиковый уровень 99.1 %
Скорость извлечения 1.7 X
Качество трека 100.0 %
CRC теста 63050436
CRC копии 63050436
Трек не обнаружен в базе AccurateRip
Копирование... OK

Трек 7

Имя файла I:\Maxim\Music\ALAC\Vivienne Mort\2016 — Rósa (EP)\07. Пташечка.wav

Пиковый уровень 99.1 %
Скорость извлечения 1.6 X
Качество трека 99.9 %
CRC теста 541827A7
CRC копии 541827A7
Трек не обнаружен в базе AccurateRip
Копирование... OK

Ни одного трека нет в базе AccurateRip

Ошибок не произошло

Конец отчёта

==== Контрольная сумма отчёта B0A89767EC9C1B205343B5981B620D0097BAFE5B8ED2927F3302CB1A5C5C5FF6 ====
(.CUE)
REM GENRE "Indie Rock, Alternative Rock, Folk, Baroque Pop"
REM DATE 2016
REM DISCID 5D05CF07
REM COMMENT "ExactAudioCopy v1.0b3"
PERFORMER "Vivienne Mort"
TITLE "Rosa (EP)"
FILE "01. Intro.wav" WAVE
TRACK 01 AUDIO
TITLE "Intro"
PERFORMER "Vivienne Mort"
INDEX 01 00:00:00
FILE "02. Той, хто рятує імена.wav" WAVE
TRACK 02 AUDIO
TITLE "Той, хто рятує імена"
PERFORMER "Vivienne Mort"
INDEX 01 00:00:00
FILE "03. Outro.wav" WAVE
TRACK 03 AUDIO
TITLE "Outro"
PERFORMER "Vivienne Mort"
INDEX 01 00:00:00
FILE "04. Хто ти такий.wav" WAVE
TRACK 04 AUDIO
TITLE "Хто ти такий?"
PERFORMER "Vivienne Mort"
INDEX 01 00:00:00
FILE "05. How.wav" WAVE
TRACK 05 AUDIO
TITLE "How"
PERFORMER "Vivienne Mort"
INDEX 01 00:00:00
FILE "06. Пам'ятаєш.wav" WAVE
TRACK 06 AUDIO
TITLE "Пам'ятаєш"
PERFORMER "Vivienne Mort"
INDEX 01 00:00:00
FILE "07. Пташечка.wav" WAVE
TRACK 07 AUDIO
TITLE "Пташечка"
PERFORMER "Vivienne Mort"
INDEX 01 00:00:00
Лог якостi
fooCDtect - foobar2000 + auCDtect, baralgin.

auCDtect: CD records authenticity detector, version 0.8.2
Copyright (c) 2004 Oleg Berngardt. All rights reserved.
Copyright (c) 2004 Alexander Djourik. All rights reserved.

mode: 0

===========================================
Track: Intro
Quality: CDDA 100%
===========================================
Track: Той, хто рятує імена
Quality: CDDA 100%
===========================================
Track: Outro
Quality: CDDA 100%
===========================================
Track: Хто ти такий
Quality: CDDA 100%
===========================================
Track: How
Quality: CDDA 100%
===========================================
Track: Пам'ятаєш
Quality: CDDA 99%
===========================================
Track: Пташечка
Quality: CDDA 100%
===========================================
[свернуть]


Ось вона, довгоочікувана Rosa – своєрідна музична квітка миру від київського гурту Vivienne Mort, яка вмістила у себе сім авторських творів-пелюсток, включно з інтро та аутро-треками, а також оприлюдненою раніше композицією «Пташечка», про яку ми, до речі, вже згадували на сайті. Запис свіжого EP проходив на студії звукозапису Revet Sound під керівництвом звукорежисера Сергія Любинського, а видав міні-альбом лейбл Enjoy Records. До речі, трохи пізніше гурт планує видати EP не тільки на фізичних компактах, а й на вінілі. Ну а наразі ви можете підтримати Vivienne Mort, офіційно придбавши міні-альбом за допомогою сервісів купівлі ліцензійного контенту iTunes чи Google Play.
Автором представлених текстів і музики є фронтвумен гурту Даніела Заюшкіна, а фінальне аранжування кожної окремо взятої композиції музиканти Vivienne Mort формували спільними творчими зусиллями. Як зазначила в прес-релізі Даніела, вона присвячує новий міні-альбом Rosa небайдужим людям, які всім серцем прагнуть миру та любові, всім тим, кого ці світлі прагнення мотивують до руху вперед по важкому життєвому шляху. Образ квітки у назві EP є алегоричним та символізує людей у вигляді схожих між собою пелюсток, в чиї жили через єдину стеблину потрапляє одна кров, а коріння всієї цієї схематичної світобудови йде далеко в небо.

Якщо Ви справді бажаєте підтримати українське - після прослуховування, якщо музика вам сподобалась, придбайте ліцензійний диск. Підтримаймо вітчизняних виконавців!


Срібний реліз (на рейтинг впливає 50% завантаженого)
 Трекер:    Зареєстрований   

Завантажити / скачати українську музику



відео для новачків



 Зареєстрований:   2016-04-24 13:24
 Розмір:   146 MB 
 Оцінка музики:   10/10 (Голосів: 8)
   
kolpavel 
VIP


З нами з: 04.05.14
Востаннє: 11.12.16
Повідомлень: 1062

2016-04-24 13:55  
Конвертував з ALAC (*.m4a) у FLAC AIMP V4.02, build 1711.

Дякую Fraps25 за релiз в ALAC.

Ваш часовий пояс: GMT + 2 Години

Нова тема   Відповісти