Завантажити та скачати торренти українською


Дикі історії (Шалені історії) / Wild Tales / Relatos salvajes (2014) 1080p Ukr/Spa | Sub Ukr/Eng/Spa

Нові коментарі

Нова тема   Відповісти
Автор Повідомлення
Anonymous 







2016-04-23 10:39  
Дикі історії (Шалені історії) / Wild Tales / Relatos salvajes (2014) 1080p Ukr/Spa | Sub Ukr/Eng/Spa

Дикі історії (Шалені історії) / Wild Tales / Relatos salvajes (2014) 1080p Ukr/Spa | Sub Ukr/Eng/Spa


Жанр: комедія, драма, трилер
Країна: Аргентина, Іспанія
<----------------->

Премія Британської кіноакадемії за Найкращий іншомовний фільм та премія Гойя за Найкращий латиноамериканський фільм

Top250 #193

Кінокомпанія: Corner Producciones, El Deseo, Instituto Nacional de Cine y Artes Audiovisuales (INCAA)
Режисер: Даміан Сіфрон / Damián Szifrón
Актори: Рікардо Дарін / Ricardo Darín, Оскар Мартінес / Oscar Martínez, Леонардо Сбараґліа / Leonardo Sbaraglia, Еріка Рівас / Erica Rivas, Рита Кортес / Rita Cortese, Хул'єта Сільберберґ / Julieta Zylberberg, Даріо Ґрандінетті / Darío Grandinetti, Марія Онетто / María Onetto, Ненсі Дуплаа / Nancy Dupláa, Осмар Нуньєс / Osmar Núñez

Сюжет:
Шість короткометражних стрічок, об'єднаних темою помсти і точки кипіння. Габріеля Пастернака кривдив багато хто, з ким зводило його життя - дівчина, учитель музики, професор у консерваторії, дантист. І ось усі вони, на свою біду, опинилися разом з ним в одному літаку. Міський красень їхав на своїй потужній Audi порожньою дорогою і вирішив обігнати стару розвалюху, але провінційний упир, що сидів за кермом, вирішив не поступатися. І ось уже криваве завершення безглуздого суперництва не за горами...

Українські трейлери:

Офіційний:


Ще один трейлер:


Рейтинг MPAA: R - особам до 17 років обов'язкова присутність батьків або дорослого опікуна
Вікова категорія: 16+

Тривалість: 02:01:59
Якість: 1080p [EbP]
Відео:
кодек:
розмір кадру: 1916 х 804
бітрейт: 11,1 Мбіт/с [crf=16.2]

Аудіо # 1:
мова: українська
переклад: багатоголосий закадровий
кодек: 5.1
бітрейт: 384 Кбіт/с

Аудіо # 2:
мова: іспанська
переклад: оригінал
кодек: 5.1
бітрейт: 640 Кбіт/с

Субтитри #1:
мова: українська
тип: програмні (м'які)
формат: *.srt

Субтитри #2:
мова: англійська
тип: програмні (м'які)
формат: *.srt

Субтитри #3-4:
мова: іспанська (повні, SDH)
тип: програмні (м'які)
формат: *.srt

Збережено оригінальні розділи, як на Blu-ray.
MediaInfo та log
Код:
Complete name               : Relatos salvajes (2014) [Ukr,Spa sub.Ukr,Eng,Spa] 1080p [Hurtom].mkv
Format                      : Matroska
Format version              : Version 4 / Version 2
File size                   : 10.3 GiB
Duration                    : 2 h 1 min
Overall bit rate            : 12.1 Mb/s
Movie name                  : Дикі історії (Шалені історії) / Wild Tales / Relatos salvajes (2014) [Ukr,Spa sub.Ukr,Eng,Spa] 1080p [Hurtom-igor911]
Released date               : 2014
Cover                       : Yes
Comment                     : TOP250 #193 http://www.imdb.com/title/tt3011894/
Attachments                 : cover.jpg
ARTIST                      : Рікардо Дарін / Ricardo Darín, Оскар Мартінес / Oscar Martínez, Леонардо Сбараґліа / Leonardo Sbaraglia, Еріка Рівас / Erica Rivas, Рита Кортес / Rita Cortese, Хул'єта Сільберберґ / Julieta Zylberberg, Даріо Ґрандінетті / Darío Grandinetti, Марія Онетто / María Onetto, Ненсі Дуплаа / Nancy Dupláa, Осмар Нуньєс / Osmar Núñez та інші
DIRECTOR                    : Даміан Сіфрон /  Damián Szifrón (Damian Szifron)
GENRE                       : комедія, драма, трилер
SYNOPSIS                    : Шість короткометражних стрічок, об'єднаних темою помсти і точки кипіння. Габріеля Пастернака кривдив багато хто, з ким зводило його життя - дівчина, учитель музики, професор у консерваторії, дантист. І ось усі вони, на свою біду, опинилися разом з ним в одному літаку. Міський красень їхав на своїй потужній Audi порожньою дорогою і вирішив обігнати стару розвалюху, але провінційний упир, що сидів за кермом, вирішив не поступатися. І ось уже криваве завершення безглуздого суперництва не за горами...

Video
ID                          : 1
Format                      : AVC
Format/Info                 : Advanced Video Codec
Format profile              : [email protected]
Format settings, CABAC      : Yes
Format settings, ReFrames   : 5 frames
Codec ID                    : V_MPEG4/ISO/AVC
Duration                    : 2 h 1 min
Bit rate                    : 11.1 Mb/s
Width                       : 1 916 pixels
Height                      : 804 pixels
Display aspect ratio        : 2.40:1
Frame rate mode             : Constant
Frame rate                  : 23.976 (24000/1001) FPS
Color space                 : YUV
Chroma subsampling          : 4:2:0
Bit depth                   : 8 bits
Scan type                   : Progressive
Bits/(Pixel*Frame)          : 0.301
Stream size                 : 9.46 GiB (92%)
Title                       : Дикі історії (Шалені історії) / Wild Tales / Relatos salvajes (2014) 1080p [[email protected]]
Writing library             : core 146 r2538 121396c
Encoding settings           : cabac=1 / ref=5 / deblock=1:-3:-3 / analyse=0x3:0x133 / me=umh / subme=10 / psy=1 / psy_rd=0.95:0.00 / mixed_ref=1 / me_range=16 / chroma_me=1 / trellis=2 / 8x8dct=1 / cqm=0 / deadzone=21,11 / fast_pskip=0 / chroma_qp_offset=-2 / threads=12 / lookahead_threads=2 / sliced_threads=0 / nr=0 / decimate=0 / interlaced=0 / bluray_compat=0 / constrained_intra=0 / bframes=7 / b_pyramid=2 / b_adapt=2 / b_bias=0 / direct=3 / weightb=1 / open_gop=0 / weightp=2 / keyint=250 / keyint_min=23 / scenecut=40 / intra_refresh=0 / rc=crf / mbtree=0 / crf=16.2 / qcomp=0.60 / qpmin=0 / qpmax=69 / qpstep=4 / ip_ratio=1.40 / pb_ratio=1.30 / aq=3:0.70 / zones=165354,175484,crf=21
Language                    : Spanish
Default                     : Yes
Forced                      : No

Audio #1
ID                          : 2
Format                      : AC-3
Format/Info                 : Audio Coding 3
Mode extension              : CM (complete main)
Format settings, Endianness : Big
Codec ID                    : A_AC3
Duration                    : 2 h 1 min
Bit rate mode               : Constant
Bit rate                    : 384 kb/s
Channel(s)                  : 6 channels
Channel positions           : Front: L C R, Side: L R, LFE
Sampling rate               : 48.0 kHz
Frame rate                  : 31.250 FPS (1536 spf)
Compression mode            : Lossy
Stream size                 : 335 MiB (3%)
Title                       : MVO [AAA-sound] 5.1 384 Kbps [Hurtom-Gelios]
Language                    : Ukrainian
Default                     : Yes
Forced                      : No

Audio #2
ID                          : 3
Format                      : AC-3
Format/Info                 : Audio Coding 3
Mode extension              : CM (complete main)
Format settings, Endianness : Big
Codec ID                    : A_AC3
Duration                    : 2 h 1 min
Bit rate mode               : Constant
Bit rate                    : 640 kb/s
Channel(s)                  : 6 channels
Channel positions           : Front: L C R, Side: L R, LFE
Sampling rate               : 48.0 kHz
Frame rate                  : 31.250 FPS (1536 spf)
Compression mode            : Lossy
Stream size                 : 558 MiB (5%)
Title                       : Original, 5.1 640 Kbps
Language                    : Spanish
Default                     : No
Forced                      : No

Text #1
ID                          : 4
Format                      : UTF-8
Codec ID                    : S_TEXT/UTF8
Codec ID/Info               : UTF-8 Plain Text
Duration                    : 2 h 0 min
Bit rate                    : 65 b/s
Count of elements           : 1181
Stream size                 : 57.9 KiB (0%)
Title                       : Ukr full [Hurtom-antusyrzhuk]
Language                    : Ukrainian
Default                     : No
Forced                      : No

Text #2
ID                          : 5
Format                      : UTF-8
Codec ID                    : S_TEXT/UTF8
Codec ID/Info               : UTF-8 Plain Text
Duration                    : 2 h 0 min
Bit rate                    : 39 b/s
Count of elements           : 1178
Stream size                 : 35.0 KiB (0%)
Title                       : Eng full
Language                    : English
Default                     : No
Forced                      : No

Text #3
ID                          : 6
Format                      : UTF-8
Codec ID                    : S_TEXT/UTF8
Codec ID/Info               : UTF-8 Plain Text
Duration                    : 1 h 54 min
Bit rate                    : 50 b/s
Count of elements           : 1199
Stream size                 : 42.4 KiB (0%)
Title                       : Spa Full
Language                    : Spanish
Default                     : No
Forced                      : No

Text #4
ID                          : 7
Format                      : UTF-8
Codec ID                    : S_TEXT/UTF8
Codec ID/Info               : UTF-8 Plain Text
Duration                    : 1 h 54 min
Bit rate                    : 53 b/s
Count of elements           : 1312
Stream size                 : 44.4 KiB (0%)
Title                       : Spa [SDH]
Language                    : Spanish
Default                     : No
Forced                      : No

Menu
00:00:00.000                : en:00:00:00.000
00:08:48.820                : en:00:08:48.820
00:20:34.275                : en:00:20:34.275
00:38:56.334                : en:00:38:56.334
01:01:52.709                : en:01:01:52.709
01:25:29.124                : en:01:25:29.124

Код:
[info]: frame I:1191 Avg QP:14.12 size:224239
[info]: frame P:36198 Avg QP:15.93 size:116435
[info]: frame B:138096 Avg QP:17.91 size: 41126
[info]: consecutive B-frames: 2.3% 2.0% 5.9% 11.2% 11.6% 57.3% 6.9% 2.7%

encoded 175485 frames, 7.25 fps, 11106.29 kb/s


Джерела та подяки: &
За український звук подяка п.Gelios'у, за переклад субтитрів подяка п.antusyrzhuk

ЗАЛИШАЙТЕСЬ ЯКОМОГА ДОВШЕ НА РОЗДАЧІ!
СКАЧАВ САМ - ДАЙ СКАЧАТИ ІНШИМ


 Трекер:    Зареєстрований   

Завантажити / скачати фільм українською



відео для новачків



 Зареєстрований:   2016-09-23 20:52
 Розмір:   10.34 GB 
 Оцінка фільму:   6.2/10 (Голосів: 25)
   
bot 
робот


З нами з: 30.09.07
Востаннє: 26.05.05
Повідомлень: 16002

2016-09-23 20:50  
Тему перенесено з Анонси релізів до форуму Фільми в HD


igor911

Anonymous 







2016-09-23 20:59  
Вибачаюсь, якщо хтось був підписаний на цю тему (Солдат Джейн 720р) - через глюк форума довелось "позичити" для іншого фільму. Солдат Джейн обіцяю теж згодом доробити (виправити звук) та викласти.
romaxa11 
Новенький


З нами з: 05.09.15
Востаннє: 05.12.16
Повідомлень: 3

2016-09-23 22:47  
Фільм дуже потужний
Ваш часовий пояс: GMT + 2 Години

Нова тема   Відповісти