Завантажити та скачати торренти українською


Тюряга / Lock Up (1989) AVC Ukr/Eng | Sub Eng

Нові коментарі

Нова тема   Відповісти
Автор Повідомлення
Anonymous 







2016-04-19 19:42  
Тюряга / Lock Up (1989) AVC Ukr/Eng | Sub Eng

Тюряга / Lock Up (1989) AVC Ukr/Eng | Sub Eng

Альтернативні постери












повнорозмірні зображення відкриються по кліку (з натиснутим CTRL чи кліком середньою кнопкою мишки - у новій вкладці)


Жанр: екшн, драма, кримінальний, трилер
Країна: США



Кінокомпанія: White Eagle, Carolco Pictures, Gordon Company
Режисер: Джон Флінн / John Flynn
Актори: Сильвестер Сталлоне / Sylvester Stallone, Дональд Сазерленд / Donald Sutherland, Джон Еймос / John Amos, Сонні Лендем / Sonny Landham, Том Сайзмур / Tom Sizemore, Френк МакКрей / Frank McRae, Денні Трехо / Danny Trejo та інші

Сюжет:
Взірцевого в'язня Френка Леоне за кілька місяців до звільнення раптово переводять до іншої в'язниці. Але ніхто не бажав йому стільки неприємностей, як начальник в'язниці Драмґул. Френк стає жертвою жорстокого і вигадливого Драмґула, який мріє згноїти його у тюрязі.


Рейтинг MPAA: R - особам до 17 років обов'язкова присутність батьків або дорослого опікуна
Вікова категорія: 16+

Тривалість: 01:48:54
Якість: AVC
Відео:
кодек:
розмір кадру: 1024 х 552
бітрейт: 2819 Кбіт/с

Аудіо # 1: /
мова: українська
переклад: двоголосий закадровий | Студія 1+1
ролі озвучили: Олександр Завальський і Світлана Круть?
кодек: 2.0
бітрейт: 192 Кбіт/с

Аудіо # 2:
мова: англійська
переклад: оригінал
кодек: 5.1
бітрейт: 384 Кбіт/с

Субтитри:
мова: англійська
тип: програмні (м'які)
формат: *.srt

Збережено оригінальні розділи, як на Blu-ray.
MediaInfo та log
Код:
Complete name               : Lock Up (1989) [Ukr,Eng sub.Eng] AVC [Hurtom].mkv
Format                      : Matroska
Format version              : Version 4 / Version 2
File size                   : 2.58 GiB
Duration                    : 1h 48mn
Overall bit rate            : 3 396 Kbps
Movie name                  : Тюряга / Lock Up (1989) [Ukr,Eng sub.Eng] AVC [Hurtom] by igor911
Encoded date                : UTC 2016-04-19 17:47:08
Writing application         : mkvmerge v9.0.1 ('Obstacles') 64bit
Writing library             : libebml v1.3.3 + libmatroska v1.4.4
Cover                       : Yes
Attachments                 : cover.jpg

Video
ID                          : 1
Format                      : AVC
Format/Info                 : Advanced Video Codec
Format profile              : [email protected]
Format settings, CABAC      : Yes
Format settings, ReFrames   : 9 frames
Codec ID                    : V_MPEG4/ISO/AVC
Duration                    : 1h 48mn
Bit rate                    : 2 819 Kbps
Width                       : 1 024 pixels
Height                      : 552 pixels
Display aspect ratio        : 1.85:1
Frame rate mode             : Constant
Frame rate                  : 24.000 fps
Color space                 : YUV
Chroma subsampling          : 4:2:0
Bit depth                   : 8 bits
Scan type                   : Progressive
Bits/(Pixel*Frame)          : 0.208
Stream size                 : 2.14 GiB (83%)
Title                       : Тюряга / Lock Up (1989) AVC [0ptimus]
Writing library             : core 133 r2334 a3ac64b
Encoding settings           : cabac=1 / ref=9 / deblock=1:-3:-3 / analyse=0x3:0x113 / me=umh / subme=11 / psy=1 / psy_rd=1.00:0.20 / mixed_ref=1 / me_range=48 / chroma_me=1 / trellis=2 / 8x8dct=1 / cqm=0 / deadzone=21,11 / fast_pskip=0 / chroma_qp_offset=-3 / threads=4 / lookahead_threads=1 / sliced_threads=0 / nr=0 / decimate=0 / interlaced=0 / bluray_compat=0 / constrained_intra=0 / bframes=8 / b_pyramid=2 / b_adapt=2 / b_bias=0 / direct=3 / weightb=1 / open_gop=0 / weightp=2 / keyint=240 / keyint_min=24 / scenecut=40 / intra_refresh=0 / rc_lookahead=40 / rc=2pass / mbtree=0 / bitrate=2819 / ratetol=1.0 / qcomp=0.60 / qpmin=0 / qpmax=69 / qpstep=4 / cplxblur=20.0 / qblur=0.5 / vbv_maxrate=50000 / vbv_bufsize=50000 / nal_hrd=none / ip_ratio=1.40 / pb_ratio=1.30 / aq=1:1.00
Language                    : English
Default                     : Yes
Forced                      : No

Audio #1
ID                          : 2
Format                      : AC-3
Format/Info                 : Audio Coding 3
Mode extension              : CM (complete main)
Format settings, Endianness : Big
Codec ID                    : A_AC3
Duration                    : 1h 48mn
Bit rate mode               : Constant
Bit rate                    : 192 Kbps
Channel(s)                  : 2 channels
Channel positions           : Front: L R
Sampling rate               : 48.0 KHz
Frame rate                  : 31.250 fps (1536 spf)
Compression mode            : Lossy
Stream size                 : 149 MiB (6%)
Title                       : DVO [2+2,ICTV] 2.0 192 kbps [Hurtom-patriot2305]
Language                    : Ukrainian
Default                     : Yes
Forced                      : No

Audio #2
ID                          : 3
Format                      : AC-3
Format/Info                 : Audio Coding 3
Mode extension              : CM (complete main)
Format settings, Endianness : Big
Codec ID                    : A_AC3
Duration                    : 1h 48mn
Bit rate mode               : Constant
Bit rate                    : 384 Kbps
Channel(s)                  : 6 channels
Channel positions           : Front: L C R, Side: L R, LFE
Sampling rate               : 48.0 KHz
Frame rate                  : 31.250 fps (1536 spf)
Compression mode            : Lossy
Delay relative to video     : 625ms
Stream size                 : 299 MiB (11%)
Title                       : Original, 5.1 384 kbps
Language                    : English
Default                     : No
Forced                      : No

Text
ID                          : 4
Format                      : UTF-8
Codec ID                    : S_TEXT/UTF8
Codec ID/Info               : UTF-8 Plain Text
Duration                    : 1h 42mn
Bit rate                    : 41 bps
Count of elements           : 1123
Stream size                 : 31.2 KiB (0%)
Language                    : English
Default                     : No
Forced                      : No

Menu
00:00:00.000                : en:Lock Up
00:08:24.458                : en:For Luck
00:18:57.416                : en:"I Was Framed"
00:26:19.500                : en:Being Transferred
00:41:08.000                : en:Welcome to Gateway
00:54:46.125                : en:Punishment
01:01:49.333                : en:Delousing Chamber
01:08:04.166                : en:Our Rules
01:15:34.083                : en:Don't Trust Anybody
01:23:22.708                : en:No Way
01:35:32.333                : en:Locked In
01:44:05.583                : en:Deep-Fried Dallas

Код:
[info]: frame I:1333 Avg QP:16.62 size: 71863
[info]: frame P:36422 Avg QP:19.61 size: 27988
[info]: frame B:119070 Avg QP:21.04 size: 9968


Джерела та подяки: &
українська доріжка - patriot2305 - зведення, Sando7, slavik_v_z - запис з ТБ; українізовані постери - igor911, hellforces; фільмографії акторів та інформація про озвучення - Віктор (всі - Гуртом).

Особиста оцінка: 8 - мені сподобалося

ЗАЛИШАЙТЕСЬ ЯКОМОГА ДОВШЕ НА РОЗДАЧІ!
СКАЧАВ САМ - ДАЙ СКАЧАТИ ІНШИМ


Срібний реліз (на рейтинг впливає 50% завантаженого)
 Трекер:    Зареєстрований   

Завантажити / скачати фільм українською



відео для новачків



 Зареєстрований:   2016-04-19 23:39
 Розмір:   2.58 GB 
 Оцінка фільму:   4.1/10 (Голосів: 18)
   
Інші релізи
   Тюряга / Lock Up (1989) 720p Ukr/Eng | Sub Multi igor911  2 / 0   4.61 GB   2016-04-19 22:08 
   Тюряга / Lock Up (1989) patriot2305  4 / 0   1.27 GB   2013-07-06 21:25 
volodymyr_sav 
VIP


З нами з: 07.10.13
Востаннє: 05.12.16
Повідомлень: 794

2016-04-20 15:24  
КЛАСИКА. Сталоне шедевральна людина. Живий приклад світової слави і поваги з нічого. Улюблений актор. Рейтинг занизили. Мистецька акторська гра і самовіддача не зрозуміла для багатьох сучасних "акторів". Усім раджу - 10/10
u25 
Новенький


З нами з: 12.04.16
Востаннє: 30.05.16
Повідомлень: 3

2016-04-24 10:27  
11 з 10
Ua.bos_01 
VIP


З нами з: 22.06.15
Востаннє: 06.12.16
Повідомлень: 1291

2016-04-28 18:39  
Однозначно це найпростіша, але водночас одна з найкращих ролей Сталоне. Здавалося б все так просто, але ж ні, дана картина насправді має досить глибокий зміст, сенс якого на жаль у сучасному Світі далеко не всім зрозумілий... Слай зіграв просто чудово. Також порадувала гра інших тоді ще невідомих, але вже професійних акторів. Класика світового жанру, як той казав. Однозначно рекомендую до перегляду.
Ваш часовий пояс: GMT + 2 Години

Нова тема   Відповісти