Завантажити та скачати торренти українською


Тюряга / Lock Up (1989) 720p Ukr/Eng | Sub Multi

Нові коментарі

Нова тема   Відповісти
Автор Повідомлення
Anonymous 







2016-04-19 18:18  
Тюряга / Lock Up (1989) 720p Ukr/Eng | Sub Multi

Тюряга / Lock Up (1989) 720p Ukr/Eng | Sub Multi

Альтернативні постери












повнорозмірні зображення відкриються по кліку (з натиснутим CTRL чи кліком середньою кнопкою мишки - у новій вкладці)


Жанр: екшн, драма, кримінальний, трилер
Країна: США



Кінокомпанія: White Eagle, Carolco Pictures, Gordon Company
Режисер: Джон Флінн / John Flynn
Актори: Сильвестер Сталлоне / Sylvester Stallone, Дональд Сазерленд / Donald Sutherland, Джон Еймос / John Amos, Сонні Лендем / Sonny Landham, Том Сайзмур / Tom Sizemore, Френк МакКрей / Frank McRae, Денні Трехо / Danny Trejo та інші

Сюжет:
Взірцевого в'язня Френка Леоне за кілька місяців до звільнення раптово переводять до іншої в'язниці. Але ніхто не бажав йому стільки неприємностей, як начальник в'язниці Драмґул. Френк стає жертвою жорстокого і вигадливого Драмґула, який мріє згноїти його у тюрязі.


Рейтинг MPAA: R - особам до 17 років обов'язкова присутність батьків або дорослого опікуна
Вікова категорія: 16+

Тривалість: 01:48:54
Якість: 720p
Відео:
кодек:
розмір кадру: 1280 х 690
бітрейт: 5109 Кбіт/с

Аудіо # 1: /
мова: українська
переклад: двоголосий закадровий | Студія 1+1
ролі озвучили: Олександр Завальський і Світлана Круть?
кодек: 2.0
бітрейт: 192 Кбіт/с

Аудіо # 2:
мова: англійська
переклад: оригінал
кодек: 5.1
бітрейт: 768 Кбіт/с

Субтитри # 1-6:
мова: англійська, німецька, французька, іспанська, данська, турецька
тип: програмні (м'які)
формат: *.srt

Збережено оригінальні розділи, як на Blu-ray.
MediaInfo
Код:
Complete name               : Lock Up (1989) [Ukr,Eng sub.Multi] 720p [Hurtom&HDClub].mkv
Format                      : Matroska
Format version              : Version 4 / Version 2
File size                   : 4.61 GiB
Duration                    : 1h 48mn
Overall bit rate            : 6 056 Kbps
Movie name                  : Тюряга / Lock Up (1989) [Ukr,Eng sub.Multi] 720p [Hurtom&HDClub] by igor911
Encoded date                : UTC 2016-04-19 17:17:57
Writing application         : mkvmerge v9.0.1 ('Obstacles') 64bit
Writing library             : libebml v1.3.3 + libmatroska v1.4.4
Cover                       : Yes
Attachments                 : cover.jpg

Video
ID                          : 1
Format                      : AVC
Format/Info                 : Advanced Video Codec
Format profile              : [email protected]
Format settings, CABAC      : Yes
Format settings, ReFrames   : 9 frames
Codec ID                    : V_MPEG4/ISO/AVC
Duration                    : 1h 48mn
Bit rate                    : 5 109 Kbps
Width                       : 1 280 pixels
Height                      : 690 pixels
Display aspect ratio        : 1.85:1
Frame rate mode             : Constant
Frame rate                  : 24.000 fps
Color space                 : YUV
Chroma subsampling          : 4:2:0
Bit depth                   : 8 bits
Scan type                   : Progressive
Bits/(Pixel*Frame)          : 0.241
Stream size                 : 3.88 GiB (84%)
Title                       : Тюряга / Lock Up (1989) 720p [EbP]
Writing library             : core 104 r1688 0b36c6d
Encoding settings           : cabac=1 / ref=9 / deblock=1:-3:-3 / analyse=0x3:0x113 / me=tesa / subme=10 / psy=1 / psy_rd=1.00:0.00 / mixed_ref=1 / me_range=16 / chroma_me=1 / trellis=2 / 8x8dct=1 / cqm=0 / deadzone=21,11 / fast_pskip=0 / chroma_qp_offset=-2 / threads=12 / sliced_threads=0 / nr=0 / decimate=0 / interlaced=0 / constrained_intra=0 / bframes=7 / b_pyramid=2 / b_adapt=2 / b_bias=0 / direct=3 / weightb=1 / open_gop=1 / weightp=2 / keyint=250 / keyint_min=24 / scenecut=40 / intra_refresh=0 / rc=2pass / mbtree=0 / bitrate=5109 / ratetol=1.0 / qcomp=0.60 / qpmin=10 / qpmax=51 / qpstep=4 / cplxblur=20.0 / qblur=0.5 / ip_ratio=1.40 / pb_ratio=1.30 / aq=1:0.85
Language                    : English
Default                     : Yes
Forced                      : No

Audio #1
ID                          : 2
Format                      : AC-3
Format/Info                 : Audio Coding 3
Mode extension              : CM (complete main)
Format settings, Endianness : Big
Codec ID                    : A_AC3
Duration                    : 1h 48mn
Bit rate mode               : Constant
Bit rate                    : 192 Kbps
Channel(s)                  : 2 channels
Channel positions           : Front: L R
Sampling rate               : 48.0 KHz
Frame rate                  : 31.250 fps (1536 spf)
Compression mode            : Lossy
Stream size                 : 149 MiB (3%)
Title                       : DVO [2+2,ICTV] 2.0 192 kbps [Hurtom-patriot2305]
Language                    : Ukrainian
Default                     : Yes
Forced                      : No

Audio #2
ID                          : 3
Format                      :
Format/Info                 : Digital Theater Systems
Mode                        : 16
Format settings, Endianness : Big
Codec ID                    : A_DTS
Duration                    : 1h 48mn
Bit rate mode               : Constant
Bit rate                    : 755 Kbps
Channel(s)                  : 6 channels
Channel positions           : Front: L C R, Side: L R, LFE
Sampling rate               : 48.0 KHz
Frame rate                  : 93.750 fps (512 spf)
Bit depth                   : 24 bits
Compression mode            : Lossy
Stream size                 : 588 MiB (12%)
Title                       : Original, 5.1 768 kbps
Language                    : English
Default                     : No
Forced                      : No

Text #1
ID                          : 4
Format                      : UTF-8
Codec ID                    : S_TEXT/UTF8
Codec ID/Info               : UTF-8 Plain Text
Duration                    : 1h 44mn
Bit rate                    : 41 bps
Count of elements           : 1127
Stream size                 : 31.6 KiB (0%)
Language                    : English
Default                     : No
Forced                      : No

Text #2
ID                          : 5
Format                      : UTF-8
Codec ID                    : S_TEXT/UTF8
Codec ID/Info               : UTF-8 Plain Text
Duration                    : 1h 44mn
Bit rate                    : 41 bps
Count of elements           : 1109
Stream size                 : 31.8 KiB (0%)
Language                    : German
Default                     : No
Forced                      : No

Text #3
ID                          : 6
Format                      : UTF-8
Codec ID                    : S_TEXT/UTF8
Codec ID/Info               : UTF-8 Plain Text
Duration                    : 1h 48mn
Bit rate                    : 37 bps
Count of elements           : 1123
Stream size                 : 29.8 KiB (0%)
Language                    : French
Default                     : No
Forced                      : No

Text #4
ID                          : 7
Format                      : UTF-8
Codec ID                    : S_TEXT/UTF8
Codec ID/Info               : UTF-8 Plain Text
Duration                    : 1h 48mn
Bit rate                    : 47 bps
Count of elements           : 1081
Stream size                 : 38.0 KiB (0%)
Language                    : Spanish
Default                     : No
Forced                      : No

Text #5
ID                          : 8
Format                      : UTF-8
Codec ID                    : S_TEXT/UTF8
Codec ID/Info               : UTF-8 Plain Text
Duration                    : 1h 48mn
Bit rate                    : 41 bps
Count of elements           : 1212
Stream size                 : 33.1 KiB (0%)
Language                    : Dutch
Default                     : No
Forced                      : No

Text #6
ID                          : 9
Format                      : UTF-8
Codec ID                    : S_TEXT/UTF8
Codec ID/Info               : UTF-8 Plain Text
Duration                    : 1h 48mn
Bit rate                    : 40 bps
Count of elements           : 1056
Stream size                 : 32.1 KiB (0%)
Language                    : Turkish
Default                     : No
Forced                      : No

Menu
00:00:00.000                : :00:00:00.000
00:08:24.458                : :00:08:24.458
00:18:57.416                : :00:18:57.416
00:26:19.500                : :00:26:19.500
00:41:08.000                : :00:41:08.000
00:54:46.125                : :00:54:46.125
01:01:49.333                : :01:01:49.333
01:08:04.166                : :01:08:04.166
01:15:34.083                : :01:15:34.083
01:23:22.708                : :01:23:22.708
01:35:32.333                : :01:35:32.333
01:44:05.583                : :01:44:05.583


Джерела та подяки: &
українська доріжка - patriot2305 - зведення, Sando7, slavik_v_z - запис з ТБ; українізовані постери - igor911, hellforces; фільмографії акторів та інформація про озвучення - Віктор (всі - Гуртом).

Особиста оцінка: 8 - мені сподобалося

ЗАЛИШАЙТЕСЬ ЯКОМОГА ДОВШЕ НА РОЗДАЧІ!
СКАЧАВ САМ - ДАЙ СКАЧАТИ ІНШИМ


Срібний реліз (на рейтинг впливає 50% завантаженого)
 Трекер:    Зареєстрований   

Завантажити / скачати фільм українською



відео для новачків



 Зареєстрований:   2016-04-19 22:08
 Розмір:   4.61 GB 
 Оцінка фільму:   4.5/10 (Голосів: 17)
   
Інші релізи
   Тюряга / Lock Up (1989) AVC Ukr/Eng | Sub Eng igor911  0 / 1   2.58 GB   2016-04-19 23:39 
   Тюряга / Lock Up (1989) patriot2305  5 / 0   1.27 GB   2013-07-06 21:25 
bot 
робот


З нами з: 30.09.07
Востаннє: 26.05.05
Повідомлень: 15975

2016-04-19 22:08  
Тему перенесено з Анонси релізів до форуму Фільми в HD


igor911

Ваш часовий пояс: GMT + 2 Години

Нова тема   Відповісти