Завантажити та скачати торренти українською


Батарейки до комплекту не входять / *batteries not included (1987) Ukr/Eng | Sub Eng

Нові коментарі

Нова тема   Відповісти
Автор Повідомлення
Anonymous 







2016-04-18 19:15  
Батарейки до комплекту не входять / *batteries not included (1987) Ukr/Eng | Sub Eng

Батарейки до комплекту не входять / *batteries not included (1987) Ukr/Eng | Sub Eng

Альтернативний постер


повнорозмірні зображення відкриються по кліку (з натиснутим CTRL чи кліком середньою кнопкою мишки - у новій вкладці)


Жанр: сімейний, фентезі, фантастика, драма, комедія
Країна: США, Канада



Кіностудія / кінокомпанія: Universal Pictures, Amblin Entertainment

Продюсер: Стівен Спілберг / Steven Spielberg
Режисер: Метт'ю Роббінс / Matthew Robbins
Актори: Г'юм Кронін / Hume Cronyn, Джессіка Тенді / Jessica Tandy, Френк МакРей / Frank McRae, Елізабет Пенья / Elizabeth Peña, Майкл Карміне / Michael Carmine, Денніс Буцикарис / Dennis Boutsikaris та інші

Сюжет:
У цій милій фантастичній комедії розповідається дивна історія, яка сталася з жителями нью-йоркського кварталу. Будинок, в якому живуть наші герої - літня сімейна пара Райлі, колишній боксер Гаррі, молода вагітна пуерторіканка Маріса та художник Мейсон, заважає планам великого забудовника по зведенню хмарочосів-близнюків, і той, прямо як у нас в Україні, наймає тітушок примусити мешканців будинку виселитись. Жменька домочадців відчайдушно бореться за порятунок рідного будинку, але сили нерівні і бідолахам залишається сподіватися лише на диво. І воно трапляється: допомога приходить від братів по розуму. Одного разу вночі квартиру Райлі відвідують несподівані гості - крихітні створіння, схожі на літаючі тарілки ...
Цікаві факти про фільм

- В епізоді, де Карлос приходить в офіс забудовника Лейсі, вони розглядають масштабний макет майбутніх хмарочосів, між якими стоїть і маленька моделька "проблемного" будинку.

- актори Джесіка Тенді та Джессика Тенди та Г'юм Кронін, що зіграли Фей та Френка Райлі, насправді є чоловіком та дружиною.

Рейтинг MPAA: PG - рекомендується присутність батьків
Вікова категорія: 6+

Тривалість: 01:46:29
Якість:
Відео:
кодек:
розмір кадру: 720x384
бітрейт: 2140 Кбіт/с

Аудіо # 1:
мова: українська
переклад: двоголосий закадровий | Студія 1+1
ролі озвучили: Олесь Гімбаржевський і Олена Узлюк?
кодек: 2.0
бітрейт: 128 Кбіт/с

Аудіо # 2:
мова: англійська
переклад: оригінал
кодек: 5.1
бітрейт: 384 Кбіт/с

Субтитри :
мова: англійська (завантажити)
тип: програмні (м'які)
формат: *.srt
MediaInfo
Код:
General
Complete name               : batteries not included (1987) [Ukr,Eng] [Hurtom].avi
Format                      : AVI
Format/Info                 : Audio Video Interleave
File size                   : 1.98 GiB
Duration                    : 1h 46mn
Overall bit rate            : 2 666 Kbps
Movie name                  : Батарейки до комплекту не входять / *batteries not included (1987) Ukr/Eng
Director                    : igor911 & Last Boy Scout
Genre                       : сімейний, фентезі, фантастика,
Writing application         : VirtualDubModRus 1.5.10.2 (build 2540/release)
Copyright                   : Hurtom.com & rutracker.org
Comment                     : 18.04.2016 https://toloka.to/t73128

Video
ID                          : 0
Format                      : MPEG-4 Visual
Format profile              : Advanced [email protected]
Format settings, BVOP       : 1
Format settings, QPel       : No
Format settings, GMC        : No warppoints
Format settings, Matrix     : Custom
Codec ID                    :
Codec ID/Hint               :
Duration                    : 1h 46mn
Bit rate                    : 2 140 Kbps
Width                       : 720 pixels
Height                      : 384 pixels
Display aspect ratio        : 1.85:1
Frame rate                  : 23.976 (23976/1000) fps
Color space                 : YUV
Chroma subsampling          : 4:2:0
Bit depth                   : 8 bits
Scan type                   : Progressive
Compression mode            : Lossy
Bits/(Pixel*Frame)          : 0.323
Stream size                 : 1.59 GiB (80%)
Writing library             : 73

Audio #1
ID                          : 1
Format                      : AC-3
Format/Info                 : Audio Coding 3
Mode extension              : CM (complete main)
Format settings, Endianness : Big
Codec ID                    : 2000
Duration                    : 1h 46mn
Bit rate mode               : Constant
Bit rate                    : 128 Kbps
Channel(s)                  : 2 channels
Channel positions           : Front: L R
Sampling rate               : 48.0 KHz
Frame rate                  : 31.250 fps (1536 spf)
Compression mode            : Lossy
Stream size                 : 97.5 MiB (5%)
Alignment                   : Split accross interleaves
Interleave, duration        : 42 ms (1.00 video frame)
Interleave, preload duratio : 500 ms
Title                       : Ukr DVO [1+1]

Audio #2
ID                          : 2
Format                      : AC-3
Format/Info                 : Audio Coding 3
Mode extension              : CM (complete main)
Format settings, Endianness : Big
Codec ID                    : 2000
Duration                    : 1h 46mn
Bit rate mode               : Constant
Bit rate                    : 384 Kbps
Channel(s)                  : 6 channels
Channel positions           : Front: L C R, Side: L R, LFE
Sampling rate               : 48.0 KHz
Frame rate                  : 31.250 fps (1536 spf)
Compression mode            : Lossy
Stream size                 : 292 MiB (14%)
Alignment                   : Split accross interleaves
Interleave, duration        : 42 ms (1.00 video frame)
Interleave, preload duratio : 500 ms
Title                       : Eng


Джерела та подяки: & &
українська доріжка - robotron005 - зведення, MAKAPOHHIK - запис з ТБ.





ЗАЛИШАЙТЕСЬ ЯКОМОГА ДОВШЕ НА РОЗДАЧІ!
СКАЧАВ САМ - ДАЙ СКАЧАТИ ІНШИМ


Срібний реліз (на рейтинг впливає 50% завантаженого)
 Трекер:    Зареєстрований   

Завантажити / скачати фільм українською



відео для новачків



 Зареєстрований:   2016-04-18 19:53
 Розмір:   1.98 GB 
 Оцінка фільму:   4.8/10 (Голосів: 19)
   
Anonymous 







2016-04-18 20:22  
Ваш часовий пояс: GMT + 2 Години

Нова тема   Відповісти