Завантажити та скачати торренти українською


Серцеїдки / Heartbreakers (2001) 2xUkr/Eng | Sub Eng

Нові коментарі

Нова тема   Відповісти
Автор Повідомлення
Anonymous 







2016-04-15 20:43  
Серцеїдки / Heartbreakers (2001) 2xUkr/Eng | Sub Eng

Серцеїдки / Heartbreakers (2001) 2xUkr/Eng | Sub Eng

Оригінальна обкладинка


повнорозмірне зображення відкриється по кліку (з натиснутим CTRL чи кліком середньою кнопкою мишки - у новій вкладці)



Жанр: комедія, мелодрама, кримінал
Країна: США



Кінокомпанія: Davis Entertainment, Metro-Goldwyn-Mayer (MGM)
Режисер: Девід Міркін
Актори: Сіґурні Вівер / Sigourney Weaver, Дженніфер Лав Г’юіт / Jennifer Love Hewitt, Рей Ліотта / Ray Liotta, Джейсон Лі / Jason Lee, Ен Бенкрофт / Anne Bancroft, Джефрі Джонс / Jeffrey Jones, Джин Гекмен / Gene Hackman, Нора Данн / Nora Dunn, Хуліо Оскар Мечосо / Julio Oscar Mechoso, Ріккі Джей / Ricky Jay, Зак Ґаліфіанакіс / Zach Galifianakis та інші

Сюжет:
Чарівна інтриганка Макс Коннерс і її старанна учениця (вона ж - дочка) Пейдж - відмінна команда. Деякі матері вчать своїх дочок музиці, танцям і етикету, а Макс передала Пейдж усе, що довідалася сама за багато років про авантюри, шахрайство й зваблення. Відсутність капіталу, на їхню думку, лише тимчасове явище, яке легко виправляється за допомогою чоловіків. Нічого не підозрюючи, добре забезпечені жертви швидко попадаються в сіті прекрасних шахрайок. Результат - легке й безтурботне життя на гроші чергового обдуреного роззяви. І все було б добре, але одного разу Пейдж зробила фатальну помилку - закохалась насправді. Адже жіноче серце не запитуючи свою господиню, завжди шукає справжню любов. Багато років тому таку ж помилку зробила й Макс.


Рейтинг MPAA: PG-13 - дітям до 13 років перегляд не бажаний
Вікова категорія: 12+

Тривалість: 02:03:29
Якість:
Відео:
кодек:
розмір кадру: 704x304
бітрейт: 1755 Кбіт/с

Аудіо # 2:
мова: українська
переклад: багатоголосий закадровий
кодек: 2.0
бітрейт: 192 Кбіт/с

Аудіо # 2:
мова: українська
переклад: багатоголосий закадровий
кодек: 5.1
бітрейт: 448 Кбіт/с
ролі озвучили: Джин Гекмен — Олег Стальчук, Рей Ліотта — Анатолій Зіновенко, Дженніфер Лав Г'юіт — Інна Капінос і ще один жіночий голос

Аудіо # 3:
мова: англійська
переклад: оригінал
кодек: 5.1
бітрейт: 384 Кбіт/с

Субтитри:
мова: англійська (завантажити)
тип: програмні (м'які)
формат: *.srt
MediaInfo
Код:
General
Complete name               : Heartbreakers (2001) [2xUkr,Eng] [Hurtom&HQClub].avi
Format                      : AVI
Format/Info                 : Audio Video Interleave
Format profile              : OpenDML
File size                   : 2.41 GiB
Duration                    : 2h 3mn
Overall bit rate            : 2 791 Kbps
Movie name                  : Серцеїдки / Heartbreakers (2001)
Director                    : igor911 & yaroslaigor
Genre                       : мелодрама, комедія, кримінал
Writing application         : VirtualDubModRus 1.5.10.2 (build 2540/release)
Copyright                   : Hurtom & HQClub
Comment                     : 15.04.2016 https://toloka.to/t73074

Video
ID                          : 0
Format                      : MPEG-4 Visual
Format profile              : Advanced [email protected]
Format settings, BVOP       : 1
Format settings, QPel       : No
Format settings, GMC        : No warppoints
Format settings, Matrix     : Custom
Codec ID                    :
Codec ID/Hint               :
Duration                    : 2h 3mn
Bit rate                    : 1 744 Kbps
Width                       : 704 pixels
Height                      : 304 pixels
Display aspect ratio        : 2.35:1
Frame rate                  : 23.976 (24000/1001) fps
Color space                 : YUV
Chroma subsampling          : 4:2:0
Bit depth                   : 8 bits
Scan type                   : Progressive
Compression mode            : Lossy
Bits/(Pixel*Frame)          : 0.340
Stream size                 : 1.50 GiB (62%)
Writing library             : 65

Audio #1
ID                          : 1
Format                      : AC-3
Format/Info                 : Audio Coding 3
Mode extension              : CM (complete main)
Format settings, Endianness : Big
Codec ID                    : 2000
Duration                    : 2h 3mn
Bit rate mode               : Constant
Bit rate                    : 192 Kbps
Channel(s)                  : 2 channels
Channel positions           : Front: L R
Sampling rate               : 48.0 KHz
Frame rate                  : 31.250 fps (1536 spf)
Compression mode            : Lossy
Stream size                 : 170 MiB (7%)
Alignment                   : Split accross interleaves
Interleave, duration        : 42 ms (1.00 video frame)
Interleave, preload duratio : 500 ms
Title                       : Ukr MVO [TET]

Audio #2
ID                          : 2
Format                      : AC-3
Format/Info                 : Audio Coding 3
Mode extension              : CM (complete main)
Format settings, Endianness : Big
Codec ID                    : 2000
Duration                    : 2h 3mn
Bit rate mode               : Constant
Bit rate                    : 448 Kbps
Channel(s)                  : 6 channels
Channel positions           : Front: L C R, Side: L R, LFE
Sampling rate               : 48.0 KHz
Frame rate                  : 31.250 fps (1536 spf)
Compression mode            : Lossy
Stream size                 : 396 MiB (16%)
Alignment                   : Split accross interleaves
Interleave, duration        : 42 ms (1.00 video frame)
Interleave, preload duratio : 500 ms
Title                       : Ukr MVO [Novyj]

Audio #3
ID                          : 3
Format                      : AC-3
Format/Info                 : Audio Coding 3
Mode extension              : CM (complete main)
Format settings, Endianness : Big
Codec ID                    : 2000
Duration                    : 2h 3mn
Bit rate mode               : Constant
Bit rate                    : 384 Kbps
Channel(s)                  : 6 channels
Channel positions           : Front: L C R, Side: L R, LFE
Sampling rate               : 48.0 KHz
Frame rate                  : 31.250 fps (1536 spf)
Compression mode            : Lossy
Stream size                 : 339 MiB (14%)
Alignment                   : Split accross interleaves
Interleave, duration        : 42 ms (1.00 video frame)
Interleave, preload duratio : 500 ms
Title                       : Original


Джерела та подяки: &
українські доріжки - ТЕТ - HDClub - зведення, РОМЕО - запис з ТБ; Новий - MutuLI - зведення, xslim - запис з ТБ; постер - pan_oleg

ЗАЛИШАЙТЕСЬ ЯКОМОГА ДОВШЕ НА РОЗДАЧІ!

СКАЧАВ САМ - ДАЙ СКАЧАТИ ІНШИМ


Срібний реліз (на рейтинг впливає 50% завантаженого)
 Трекер:    Зареєстрований   

Завантажити / скачати фільм українською



відео для новачків



 Зареєстрований:   2016-04-15 21:03
 Розмір:   2.41 GB 
 Оцінка фільму:   5.5/10 (Голосів: 23)
   
Інші релізи
   Серцеїдки / Heartbreakers (2001) 720p 2xUkr/Eng | Sub Eng igor911  2 / 0   7.83 GB   2016-04-15 20:23 
boroznaya 
VIP


З нами з: 02.11.12
Востаннє: 03.12.16
Повідомлень: 1868

2016-10-02 08:52  
Відмінна комедія!
Ваш часовий пояс: GMT + 2 Години

Нова тема   Відповісти