Завантажити та скачати торренти українською


Серцеїдки / Heartbreakers (2001) 720p 2xUkr/Eng | Sub Eng

Нові коментарі

Нова тема   Відповісти
Автор Повідомлення
Anonymous 







2016-04-15 11:29  
Серцеїдки / Heartbreakers (2001) 720p 2xUkr/Eng | Sub Eng

Серцеїдки / Heartbreakers (2001) 720p 2xUkr/Eng | Sub Eng

Оригінальна обкладинка


повнорозмірне зображення відкриється по кліку (з натиснутим CTRL чи кліком середньою кнопкою мишки - у новій вкладці)



Жанр: комедія, мелодрама, кримінал
Країна: США



Кінокомпанія: Davis Entertainment, Metro-Goldwyn-Mayer (MGM)
Режисер: Девід Міркін
Актори: Сіґурні Вівер / Sigourney Weaver, Дженніфер Лав Г’юіт / Jennifer Love Hewitt, Рей Ліотта / Ray Liotta, Джейсон Лі / Jason Lee, Ен Бенкрофт / Anne Bancroft, Джефрі Джонс / Jeffrey Jones, Джин Гекмен / Gene Hackman, Нора Данн / Nora Dunn, Хуліо Оскар Мечосо / Julio Oscar Mechoso, Ріккі Джей / Ricky Jay, Зак Ґаліфіанакіс / Zach Galifianakis та інші

Сюжет:
Чарівна інтриганка Макс Коннерс і її старанна учениця (вона ж - дочка) Пейдж - відмінна команда. Деякі матері вчать своїх дочок музиці, танцям і етикету, а Макс передала Пейдж усе, що довідалася сама за багато років про авантюри, шахрайство й зваблення. Відсутність капіталу, на їхню думку, лише тимчасове явище, яке легко виправляється за допомогою чоловіків. Нічого не підозрюючи, добре забезпечені жертви швидко попадаються в сіті прекрасних шахрайок. Результат - легке й безтурботне життя на гроші чергового обдуреного роззяви. І все було б добре, але одного разу Пейдж зробила фатальну помилку - закохалась насправді. Адже жіноче серце не запитуючи свою господиню, завжди шукає справжню любов. Багато років тому таку ж помилку зробила й Макс.


Рейтинг MPAA: PG-13 - дітям до 13 років перегляд не бажаний
Вікова категорія: 12+

Тривалість: 02:03:29
Якість: 720p [EbP]
Відео:
кодек:
розмір кадру: 1280x548
бітрейт: 6670 Кбіт/с [crf=16.5]

Аудіо # 2:
мова: українська
переклад: багатоголосий закадровий
кодек: 2.0
бітрейт: 192 Кбіт/с

Аудіо # 2:
мова: українська
переклад: багатоголосий закадровий
кодек: 5.1
бітрейт: 448 Кбіт/с
ролі озвучили: Джин Гекмен — Олег Стальчук, Рей Ліотта — Анатолій Зіновенко, Дженніфер Лав Г'юіт — Інна Капінос і ще один жіночий голос

Аудіо # 3:
мова: англійська
переклад: оригінал
кодек: 5.1
бітрейт: 1510 Кбіт/с

Субтитри:
мова: англійська
тип: програмні (м'які)
формат: *.srt

Збережено оригінальні розділи, як на Blu-ray.
MediaInfo
Код:
Complete name               : Heartbreakers (2001) [2xUkr,Eng sub.Eng] 720p [Hurtom&HDClub].mkv
Format                      : Matroska
Format version              : Version 4 / Version 2
File size                   : 7.83 GiB
Duration                    : 2h 3mn
Overall bit rate            : 9 080 Kbps
Movie name                  : Серцеїдки / Heartbreakers (2001) [2xUkr,Eng sub.Eng] 720p [Hurtom&HDClub] by igor911
Encoded date                : UTC 2016-04-15 17:02:56
Writing application         : mkvmerge v9.0.1 ('Obstacles') 64bit
Writing library             : libebml v1.3.3 + libmatroska v1.4.4
Cover                       : Yes
Attachments                 : cover.jpg

Video
ID                          : 1
Format                      : AVC
Format/Info                 : Advanced Video Codec
Format profile              : [email protected]
Format settings, CABAC      : Yes
Format settings, ReFrames   : 11 frames
Codec ID                    : V_MPEG4/ISO/AVC
Duration                    : 2h 3mn
Bit rate                    : 6 928 Kbps
Width                       : 1 280 pixels
Height                      : 548 pixels
Display aspect ratio        : 2.35:1
Frame rate mode             : Constant
Frame rate                  : 23.976 (24000/1001) fps
Color space                 : YUV
Chroma subsampling          : 4:2:0
Bit depth                   : 8 bits
Scan type                   : Progressive
Bits/(Pixel*Frame)          : 0.412
Stream size                 : 5.98 GiB (76%)
Title                       : Серцеїдки / Heartbreakers (2001) 720p [EbP]
Writing library             : core 148 r2638 7599210
Encoding settings           : cabac=1 / ref=11 / deblock=1:-3:-3 / analyse=0x3:0x133 / me=umh / subme=10 / psy=1 / psy_rd=1.05:0.00 / mixed_ref=1 / me_range=16 / chroma_me=1 / trellis=2 / 8x8dct=1 / cqm=0 / deadzone=21,11 / fast_pskip=0 / chroma_qp_offset=-2 / threads=12 / lookahead_threads=2 / sliced_threads=0 / nr=0 / decimate=0 / interlaced=0 / bluray_compat=0 / constrained_intra=0 / bframes=9 / b_pyramid=2 / b_adapt=2 / b_bias=0 / direct=3 / weightb=1 / open_gop=0 / weightp=2 / keyint=250 / keyint_min=23 / scenecut=40 / intra_refresh=0 / rc=crf / mbtree=0 / crf=16.5 / qcomp=0.60 / qpmin=0 / qpmax=69 / qpstep=4 / ip_ratio=1.40 / pb_ratio=1.30 / aq=3:0.75
Language                    : English
Default                     : Yes
Forced                      : No

Audio #1
ID                          : 2
Format                      : AC-3
Format/Info                 : Audio Coding 3
Mode extension              : CM (complete main)
Format settings, Endianness : Big
Codec ID                    : A_AC3
Duration                    : 2h 3mn
Bit rate mode               : Constant
Bit rate                    : 192 Kbps
Channel(s)                  : 2 channels
Channel positions           : Front: L R
Sampling rate               : 48.0 KHz
Frame rate                  : 31.250 fps (1536 spf)
Compression mode            : Lossy
Stream size                 : 170 MiB (2%)
Title                       : MVO [TET] 2.0 192 kbps [HDClub,Hurtom-РОМЕО]
Language                    : Ukrainian
Default                     : Yes
Forced                      : No

Audio #2
ID                          : 3
Format                      : AC-3
Format/Info                 : Audio Coding 3
Mode extension              : CM (complete main)
Format settings, Endianness : Big
Codec ID                    : A_AC3
Duration                    : 2h 3mn
Bit rate mode               : Constant
Bit rate                    : 448 Kbps
Channel(s)                  : 6 channels
Channel positions           : Front: L C R, Side: L R, LFE
Sampling rate               : 48.0 KHz
Frame rate                  : 31.250 fps (1536 spf)
Compression mode            : Lossy
Stream size                 : 396 MiB (5%)
Title                       : MVO [Novyj] 5.1 448 kbps [Hurtom-MutuLI]
Language                    : Ukrainian
Default                     : No
Forced                      : No

Audio #3
ID                          : 4
Format                      :
Format/Info                 : Digital Theater Systems
Mode                        : 16
Format settings, Endianness : Big
Codec ID                    : A_DTS
Duration                    : 2h 3mn
Bit rate mode               : Constant
Bit rate                    : 1 509 Kbps
Channel(s)                  : 6 channels
Channel positions           : Front: L C R, Side: L R, LFE
Sampling rate               : 48.0 KHz
Frame rate                  : 93.750 fps (512 spf)
Bit depth                   : 24 bits
Compression mode            : Lossy
Stream size                 : 1.30 GiB (17%)
Title                       : Original, 5.1 1509 kbps
Language                    : English
Default                     : No
Forced                      : No

Text
ID                          : 5
Format                      : UTF-8
Codec ID                    : S_TEXT/UTF8
Codec ID/Info               : UTF-8 Plain Text
Duration                    : 1h 57mn
Bit rate                    : 59 bps
Count of elements           : 1910
Stream size                 : 51.3 KiB (0%)
Language                    : English
Default                     : No
Forced                      : No

Menu
00:00:00.000                : en:Main Title / "I Do"
00:07:58.266                : en:Unzipped & Undone
00:19:18.766                : en:A Taxi Suituation
00:22:33.266                : en:The Fall Girl
00:26:05.266                : en:Big Fish & Salty Nuts
00:31:22.766                : en:Tensy Problems / Jack
00:43:23.266                : en:Getting Spiked
00:52:30.766                : en:Star Gazers /U.S.S.R.
01:02:09.766                : en:Lights & Meteors
01:06:04.766                : en:Hide & Seek
01:09:49.266                : en:Maid To Please
01:12:44.266                : en:Love & Con-Dropping
01:16:33.766                : en:For Her Own Good
01:18:56.266                : en:An Indecent Proposal
01:23:13.766                : en:Drop-Dead Gorgeous
01:25:56.166                : en:"I'll Do Anything!"
01:29:40.666                : en:Strange Bedfellows
01:35:57.166                : en:Hooking Mr. $.15 Million
01:41:24.166                : en:"I Do" 2
01:46:11.666                : en:Getting Jacked Around
01:51:42.166                : en:"Love Is Pain!"
01:54:15.166                : en:A Fresh Start
01:56:20.166                : en:"A Respectable Life"
01:57:44.166                : en:My Name is Page"
01:58:45.666                : en:One Last Time
01:59:35.666                : en:End Credits
Скріншоти
Джерела та подяки: &
українські доріжки - ТЕТ - HDClub - зведення, РОМЕО - запис з ТБ; Новий - MutuLI - зведення, xslim - запис з ТБ; постер - pan_oleg

ЗАЛИШАЙТЕСЬ ЯКОМОГА ДОВШЕ НА РОЗДАЧІ!

СКАЧАВ САМ - ДАЙ СКАЧАТИ ІНШИМ


Срібний реліз (на рейтинг впливає 50% завантаженого)
 Трекер:    Зареєстрований   

Завантажити / скачати фільм українською



відео для новачків



 Зареєстрований:   2016-04-15 20:23
 Розмір:   7.83 GB 
 Оцінка фільму:   3.4/10 (Голосів: 14)
   
Інші релізи
   Серцеїдки / Heartbreakers (2001) 2xUkr/Eng | Sub Eng igor911  5 / 0   2.41 GB   2016-04-15 21:03 
Anonymous 







2016-04-15 21:32  
Ваш часовий пояс: GMT + 2 Години

Нова тема   Відповісти