Завантажити та скачати торренти українською


Далеко-далеко / Далека країна / Far and Away (1992) 720p 2xUkr/Eng | Sub Eng

Нові коментарі

Нова тема   Відповісти
Автор Повідомлення
Anonymous 







2016-04-14 19:18  
Далеко-далеко / Далека країна / Far and Away (1992) 720p 2xUkr/Eng | Sub Eng

Далеко-далеко / Далека країна / Far and Away (1992) 720p 2xUkr/Eng | Sub Eng


Жанр: пригодницький, драма, романтичний, вестерн
Країна: США



Кінокомпанія: Imagine Films Entertainment, Universal Pictures
Режисер: Рон Говард / Ron Howard
Актори: Том Круз / Tom Cruise, Ніколь Кідмен / Nicole Kidman, Томас Ґібсон / Thomas Gibson , Роберт Проскі / Robert Prosky, Барбара Бебкок / Barbara Babcock, Ейлін Поллок / Eileen Pollock, Колм Міні / Colm Meaney, Даґлес Джиллісон / Douglas Gillison, Мішель Джонсон / Michelle Johnson, Вейн Ґрейс / Wayne Grace та інші

Сюжет:
Кінець XIX століття, Ірландія. Після смерті батька, бідного орендаря, його молодший син Джозеф Доннеллі позбувся свого спадку через нечистого на руку лендлорда Даніеля Крісті. Але ось починається повстання, і Джозеф хоче помститися, але вбити кривдника йому не вдається. Навпаки, сам Доннеллі отримує поранення. Опинившись в будинку Крісті, Джозеф знайомиться з його дочкою Шеннон. Джозеф несподівано потрапляє в тенета рудоволосої емансипованої красуні Шеннон Крісті, дочки лендлорда. Шеннон пропонує Джозефові втікати разом з нею в Америку, де, як вона чула, можна отримати землю, яку роздають безкоштовно на заході країни. Джозеф піддається на вмовляння Шеннон і вони відправляються за американською мрією...


Рейтинг MPAA: PG-13 - дітям до 13 років перегляд не бажаний
Вікова категорія: 12+

Тривалість: 02:19:53
Якість: 720p
Відео:
кодек:
розмір кадру: 1280 х 544
бітрейт: 6094 Кбіт/с [crf=16]

Аудіо # 1:
мова: українська
переклад: багатоголосий закадровий
кодек: 2.0
бітрейт: 192 Кбіт/с

Аудіо # 2:
мова: українська
переклад: багатоголосий закадровий
кодек: 2.0
бітрейт: 192 Кбіт/с

Аудіо # 3:
мова: англійська
переклад: оригінал
кодек: 5.1
бітрейт: 640 Кбіт/с

Субтитри:
мова: англійська
тип: програмні (м'які)
формат: *.srt

Збережено оригінальні розділи, як на Blu-ray.
MediaInfo
Код:
Complete name               : Far and Away (1992) [2xUkr,Eng sub.Eng] 720p [Hurtom].mkv
Format                      : Matroska
Format version              : Version 4 / Version 2
File size                   : 6.96 GiB
Duration                    : 2 h 19 min
Overall bit rate            : 7 116 kb/s

Video
ID                          : 1
Format                      : AVC
Format/Info                 : Advanced Video Codec
Format profile              : [email protected]
Format settings, CABAC      : Yes
Format settings, ReFrames   : 8 frames
Codec ID                    : V_MPEG4/ISO/AVC
Duration                    : 2 h 19 min
Bit rate                    : 6 094 kb/s
Width                       : 1 280 pixels
Height                      : 544 pixels
Display aspect ratio        : 2.35:1
Frame rate mode             : Constant
Frame rate                  : 23.976 (24000/1001) FPS
Color space                 : YUV
Chroma subsampling          : 4:2:0
Bit depth                   : 8 bits
Scan type                   : Progressive
Bits/(Pixel*Frame)          : 0.365
Stream size                 : 5.95 GiB (86%)
Title                       : Далеко-далеко / Далека країна / Far and Away (1992) 720p [HDClub-N1NT3NDO]
Writing library             : core 142 r2453 ea0ca51
Encoding settings           : cabac=1 / ref=8 / deblock=1:-3:-3 / analyse=0x3:0x133 / me=tesa / subme=11 / psy=1 / psy_rd=1.15:0.10 / mixed_ref=1 / me_range=32 / chroma_me=1 / trellis=2 / 8x8dct=1 / cqm=0 / deadzone=21,11 / fast_pskip=0 / chroma_qp_offset=-3 / threads=12 / lookahead_threads=3 / sliced_threads=0 / nr=0 / decimate=1 / interlaced=0 / bluray_compat=0 / constrained_intra=0 / bframes=10 / b_pyramid=2 / b_adapt=2 / b_bias=0 / direct=3 / weightb=1 / open_gop=0 / weightp=2 / keyint=240 / keyint_min=23 / scenecut=40 / intra_refresh=0 / rc_lookahead=80 / rc=crf / mbtree=0 / crf=16.0 / qcomp=0.60 / qpmin=0 / qpmax=69 / qpstep=4 / vbv_maxrate=62500 / vbv_bufsize=78125 / crf_max=0.0 / nal_hrd=none / filler=0 / ip_ratio=1.25 / pb_ratio=1.15 / aq=2:0.75
Language                    : English
Default                     : Yes
Forced                      : No

Audio #1
ID                          : 2
Format                      : AC-3
Format/Info                 : Audio Coding 3
Mode extension              : CM (complete main)
Format settings, Endianness : Big
Codec ID                    : A_AC3
Duration                    : 2 h 19 min
Bit rate mode               : Constant
Bit rate                    : 192 kb/s
Channel(s)                  : 2 channels
Channel positions           : Front: L R
Sampling rate               : 48.0 kHz
Frame rate                  : 31.250 FPS (1536 spf)
Compression mode            : Lossy
Stream size                 : 192 MiB (3%)
Title                       : MVO [NLO.TV] 2.0 192 Kbps [Hurtom-ninenine]
Language                    : Ukrainian
Default                     : Yes
Forced                      : No

Audio #2
ID                          : 3
Format                      : AC-3
Format/Info                 : Audio Coding 3
Mode extension              : CM (complete main)
Format settings, Endianness : Big
Codec ID                    : A_AC3
Duration                    : 2 h 19 min
Bit rate mode               : Constant
Bit rate                    : 192 kb/s
Channel(s)                  : 2 channels
Channel positions           : Front: L R
Sampling rate               : 48.0 kHz
Frame rate                  : 31.250 FPS (1536 spf)
Compression mode            : Lossy
Stream size                 : 192 MiB (3%)
Title                       : MVO [ICTV] 2.0 192 kbps [Hurtom-ninenine]
Language                    : Ukrainian
Default                     : No
Forced                      : No

Audio #3
ID                          : 4
Format                      : AC-3
Format/Info                 : Audio Coding 3
Mode extension              : CM (complete main)
Format settings, Endianness : Big
Codec ID                    : A_AC3
Duration                    : 2 h 19 min
Bit rate mode               : Constant
Bit rate                    : 640 kb/s
Channel(s)                  : 6 channels
Channel positions           : Front: L C R, Side: L R, LFE
Sampling rate               : 48.0 kHz
Frame rate                  : 31.250 FPS (1536 spf)
Compression mode            : Lossy
Stream size                 : 641 MiB (9%)
Title                       : Original, 5.1 640 Kbps
Language                    : English
Default                     : No
Forced                      : No

Text
ID                          : 5
Format                      : UTF-8
Codec ID                    : S_TEXT/UTF8
Codec ID/Info               : UTF-8 Plain Text
Duration                    : 2 h 12 min
Bit rate                    : 50 b/s
Count of elements           : 1649
Stream size                 : 49.4 KiB (0%)
Language                    : English
Default                     : No
Forced                      : No

Menu
00:00:00.000                : en:The Fighting Family Donelly
00:13:08.412                : en:Off to Kill the Landlord
00:20:44.910                : en:Shannon
00:36:37.320                : en:Pistols at Dawn
00:42:54.196                : en:Boston Harbor
00:50:01.623                : en:A Vacancy at Molly Kay's
00:54:39.776                : en:Death to the Landlord
01:05:33.512                : en:The New Scrapper
01:20:53.682                : en:The Big Fight
01:29:49.675                : en:Homeless
01:36:31.243                : en:Shannon's Homecoming
01:45:59.144                : en:The Oklahoma Territory
02:00:09.702                : en:The Land Rush
02:08:17.356                : en:This Land is Mine
02:10:19.937                : en:I Feel Myself Dyin'!
02:13:51.314                : en:End Credits
Ріп <----------> Оригінал







Джерело: &
Подяка за українські доріжки: Arsenfpu (1), ninenine (2)- зведення, РОМЕО (1), Neytreenor (2) - запис з ТБ.


Срібний реліз (на рейтинг впливає 50% завантаженого)
 Трекер:    Зареєстрований   

Завантажити / скачати фільм українською



відео для новачків



 Зареєстрований:   2016-10-28 15:38
 Розмір:   6.96 GB 
 Оцінка фільму:   4.4/10 (Голосів: 17)
   
Інші релізи
Anonymous 







2016-10-28 15:41  
Реліз оновлено!
Додано озвучення з НЛО TV

золото на тиждень

Ваш часовий пояс: GMT + 2 Години

Нова тема   Відповісти