Завантажити та скачати торренти українською


Хто в домі тато / Daddy's Home (2015) 1080p Ukr/Eng | Sub Eng

Нові коментарі

Нова тема   Відповісти
Автор Повідомлення
JustAMan 
Новенький


З нами з: 20.05.12
Востаннє: 10.12.16
Повідомлень: 15

2016-04-14 02:45  
Хто в домі тато / Daddy's Home (2015) 1080p Ukr/Eng | Sub Eng

Хто в домі тато / Daddy's Home (2015) 1080p Ukr/Eng | Sub Eng


Жанр: комедія
Країна: США



Кінокомпанія: Gary Sanchez Productions, Good Universe, Paramount Pictures
Режисер: Шон Андерс, Джон Морріс
Актори: Вілл Феррелл, Марк Волберг, Лінда Карделліні, Алессандра Амброзіо, Томас Гейден Черч, ДжоАнна Вортем

Сюжет:
Бред (Вілл Феррелл) – тихий і скромний чоловік. Усіма силами він намагається стати гарним батьком Ділану та Меган, дітям своєї дружини Сари (Лінда Карделліні) від першого шлюбу. Здається, що це в нього виходить. Але свої корективи вносить приїзд справжнього батька дітей Дасті Майрона (Марк Волберг). Щоб завоювати увагу дітлахів, ці двоє ладні зі шкіри лізти. Ось тільки чи дадуть такі зусилля результат, поки не зрозуміло.


Тривалість: 01:36:01
Якість: 1080p
Відео:
розмір кадру: 1920 х 1080
бітрейт: 11,2 Мбіт/с

Аудіо # 1:
мова: українська
переклад: професійний дубльований
кодек: 2.0
бітрейт: 192 Кбіт/с

Аудіо # 2:
мова: англійська
переклад: оригінал
кодек: 5.1
бітрейт: 1509 Кбіт/с

Субтитри #1-3:
мова: англійська (SDH, повні, форсовані)
тип: програмні (м'які)
формат: *.srt
MediaInfo
General
Unique ID : 176495576662871493821648722596429183813 (0x84C7CFC5FAFDE5F88AC8DA5DF2C23B45)
Complete name : D:\Movie\Daddy's Home (2015) 1080p [Hurtom] Ukr.mkv
Format : Matroska
Format version : Version 4 / Version 2
File size : 8.67 GiB
Duration : 1h 36mn
Overall bit rate : 12.9 Mbps
Encoded date : UTC 2016-04-13 23:30:02
Writing application : mkvmerge v9.0.1 ('Obstacles') 64bit
Writing library : libebml v1.3.3 + libmatroska v1.4.4

Video
ID : 1
Format : AVC
Format/Info : Advanced Video Codec
Format profile : [email protected]
Format settings, CABAC : Yes
Format settings, ReFrames : 4 frames
Codec ID : V_MPEG4/ISO/AVC
Duration : 1h 36mn
Bit rate : 11.2 Mbps
Width : 1 920 pixels
Height : 1 080 pixels
Display aspect ratio : 16:9
Frame rate mode : Constant
Frame rate : 23.976 (24000/1001) fps
Color space : YUV
Chroma subsampling : 4:2:0
Bit depth : 8 bits
Scan type : Progressive
Bits/(Pixel*Frame) : 0.226
Stream size : 7.53 GiB (87%)
Writing library : core 148 r2665kMod a01e339
Encoding settings : cabac=1 / ref=4 / deblock=1:-3:-3 / analyse=0x3:0x133 / me=umh / subme=10 / psy=1 / fade_compensate=0.00 / psy_rd=1.10:0.00 / mixed_ref=1 / me_range=24 / chroma_me=1 / trellis=2 / 8x8dct=1 / cqm=0 / deadzone=21,11 / fast_pskip=0 / chroma_qp_offset=-2 / threads=12 / lookahead_threads=2 / sliced_threads=0 / nr=0 / decimate=0 / interlaced=0 / bluray_compat=0 / constrained_intra=0 / fgo=0 / bframes=9 / b_pyramid=2 / b_adapt=2 / b_bias=0 / direct=3 / weightb=1 / open_gop=0 / weightp=2 / keyint=250 / keyint_min=23 / scenecut=40 / intra_refresh=0 / rc_lookahead=60 / rc=crf / mbtree=0 / crf=19.5000 / qcomp=0.68 / qpmin=0 / qpmax=69 / qpstep=4 / vbv_maxrate=62500 / vbv_bufsize=78125 / crf_max=0.0 / nal_hrd=none / filler=0 / ip_ratio=1.30 / pb_ratio=1.20 / aq=3:0.80
Language : English
Default : Yes
Forced : No
Color range : Limited
Matrix coefficients : BT.709

Audio #1
ID : 2
Format : AC-3
Format/Info : Audio Coding 3
Mode extension : CM (complete main)
Format settings, Endianness : Big
Codec ID : A_AC3
Duration : 1h 36mn
Bit rate mode : Constant
Bit rate : 192 Kbps
Channel(s) : 2 channels
Channel positions : Front: L R
Sampling rate : 48.0 KHz
Frame rate : 31.250 fps (1536 spf)
Compression mode : Lossy
Stream size : 132 MiB (1%)
Language : Ukrainian
Default : Yes
Forced : Yes

Audio #2
ID : 3
Format :
Format/Info : Digital Theater Systems
Mode : 16
Format settings, Endianness : Big
Codec ID : A_DTS
Duration : 1h 36mn
Bit rate mode : Constant
Bit rate : 1 509 Kbps
Channel(s) : 6 channels
Channel positions : Front: L C R, Side: L R, LFE
Sampling rate : 48.0 KHz
Frame rate : 93.750 fps (512 spf)
Bit depth : 24 bits
Compression mode : Lossy
Stream size : 1.01 GiB (12%)
Language : English
Default : No
Forced : No

Text #1
ID : 4
Format : UTF-8
Codec ID : S_TEXT/UTF8
Codec ID/Info : UTF-8 Plain Text
Duration : 1h 33mn
Bit rate : 111 bps
Count of elements : 2160
Stream size : 77.0 KiB (0%)
Title : SDH
Language : English
Default : No
Forced : No

Text #2
ID : 5
Format : UTF-8
Codec ID : S_TEXT/UTF8
Codec ID/Info : UTF-8 Plain Text
Duration : 1h 33mn
Bit rate : 106 bps
Count of elements : 2050
Stream size : 73.4 KiB (0%)
Language : English
Default : No
Forced : No

Text #3
ID : 6
Format : UTF-8
Codec ID : S_TEXT/UTF8
Codec ID/Info : UTF-8 Plain Text
Duration : 3s 294ms
Bit rate : 136 bps
Count of elements : 1
Stream size : 56.0 Bytes (0%)
Title : FORCED
Language : English
Default : No
Forced : No

Menu
00:00:00.000 : en:00:00:00.000
00:09:23.730 : en:00:09:23.730
00:19:57.071 : en:00:19:57.071
00:28:45.015 : en:00:28:45.015
00:35:35.050 : en:00:35:35.050
00:44:05.768 : en:00:44:05.768
00:55:54.726 : en:00:55:54.726
01:03:21.047 : en:01:03:21.047
01:12:08.199 : en:01:12:08.199
01:21:58.205 : en:01:21:58.205
01:31:15.261 : en:01:31:15.261
Скріншоти










Джерело: &
Особиста оцінка: 8 - мені сподобалося


 Трекер:    Зареєстрований   

Завантажити / скачати фільм українською



відео для новачків



 Зареєстрований:   2016-04-14 02:45
 Розмір:   8.67 GB 
 Оцінка фільму:   9.1/10 (Голосів: 23)
   
Інші релізи
   Хто в домі тато / Daddy's Home (2015) 720p Ukr/Eng 11FrYkT  6 / 0   2.98 GB   2016-04-14 17:03 
   Хто в домі тато / Daddy's Home (2015) AngryBirdsUA  20 / 1   1.45 GB   2016-04-13 21:30 
andreu1999 
Свій


З нами з: 20.10.14
Востаннє: 09.12.16
Повідомлень: 79

2016-04-14 14:26  
а 720р буде?
igor911 
Відео Гуртом
Відео Гуртом


З нами з: 18.01.08
Востаннє: 10.12.16
Повідомлень: 5210

2016-04-14 17:58  
andreu1999, ось 720p http://toloka.to/t73046
гобой 
Новенький


З нами з: 08.01.12
Востаннє: 06.12.16
Повідомлень: 23

2016-04-14 21:08  
Нарешті)))))
Arcon Sarkel 
Попереджень: 2
Попереджень: 2 


З нами з: 04.03.16
Востаннє: 08.12.16
Повідомлень: 61

2016-04-15 18:06  
Благозичу, кумедна кінострічка Татки Вдома / Daddy's Home (2015), а перекладачу невдяка через назву.
igor911 
Відео Гуртом
Відео Гуртом


З нами з: 18.01.08
Востаннє: 10.12.16
Повідомлень: 5210

2016-04-15 18:09  
Arcon Sarkel, затям, що дубляж фільму - це не дослівний переклад.
Arcon Sarkel 
Попереджень: 2
Попереджень: 2 


З нами з: 04.03.16
Востаннє: 08.12.16
Повідомлень: 61

2016-04-17 08:07  
Ігор затамуй подих: - Крок вліво, крок вправо вирішується урвищем.
ninenine 
Відео Гуртом - фільмокрай
Відео Гуртом - фільмокрай


З нами з: 23.10.09
Востаннє: 09.12.16
Повідомлень: 1147

2016-04-18 17:45  
Легка комедія, для підняття настрою те що треба 7 з 10.
Ваш часовий пояс: GMT + 2 Години

Нова тема   Відповісти