Завантажити та скачати торренти українською


Авторитет / Juice (1992) HDTV 720p Ukr / Eng

Нові коментарі

Нова тема   Відповісти
Останній раз роздавалося sollo995 (2016-10-23)
Автор Повідомлення
NextDayMinor 
Свій


З нами з: 14.06.13
Востаннє: 27.11.16
Повідомлень: 76

2016-04-13 17:42  
Авторитет / Juice (1992) HDTV 720p Ukr / Eng

Авторитет / Juice (1992) HDTV 720p Ukr / Eng


Жанр: Кримінал, драма, трилер
Країна: США



Режисер: Ернест Р. Дікерсон,
Актори: Тупак Шакур, Омар Еппс, Семюел Л. Джексон, Квін Латіфа, Жермен Г. Гопкінс

Сюжет:
Кримільна драма, що згодом отримала статус культової. Дебютний фільм Ернеста Діккерсона (також відомий, як сценарист телесеріалу "І мертві підуть"), який розповідає нам про тяжке життя темношкірих людей із Гарлема. Четверо підлітків ведуть злочинний спосіб життя та раптом усе змінюється після невдалого пограбування магазину.


Тривалість: 01:30:43
Якість: HDTV 720p
Відео:
кодек: AVC
розмір кадру: 1 280 х 706
бітрейт: 5 292 кб/с

Аудіо №1:
мова: українська
переклад: багатоголосий закадровий
кодек: 2.0
бітрейт: 384 кб/с

Аудіо №2:
мова: англійська (оригінал)
кодек: 2.0
бітрейт: 384 кб/с

Джерело озвучення:


Подяка slavik_v_z за надану доріжку

Інформація про озвучення:
Фільм озвучено студією Так Треба Продакшн на замовлення ВОЛЯ Cinema

Чоловічі ролі - Олександр Солодкий, Дмитро Терещук, Роман Чорний
Усі жіночі ролі - Вікторія Москаленко
MediaInfo
Video
ID : 1
Format : AVC
Format/Info : Advanced Video Codec
Format profile : [email protected]
Format settings, CABAC : Yes
Format settings, ReFrames : 9 frames
Codec ID : V_MPEG4/ISO/AVC
Duration : 1h 30mn
Bit rate : 5 292 Kbps
Width : 1 280 pixels
Height : 706 pixels
Display aspect ratio : 16:9
Frame rate mode : Constant
Frame rate : 25.000 fps
Color space : YUV
Chroma subsampling : 4:2:0
Bit depth : 8 bits
Scan type : Progressive
Bits/(Pixel*Frame) : 0.234
Stream size : 3.35 GiB (87%)
Writing library : core 98 r1643 59a9e03
Encoding settings : cabac=1 / ref=9 / deblock=1:-3:-3 / analyse=0x3:0x113 / me=umh / subme=9 / psy=1 / psy_rd=1.00:0.20 / mixed_ref=1 / me_range=16 / chroma_me=1 / trellis=2 / 8x8dct=1 / cqm=0 / deadzone=21,11 / fast_pskip=0 / chroma_qp_offset=-3 / threads=6 / sliced_threads=0 / nr=0 / decimate=1 / interlaced=0 / constrained_intra=0 / bframes=3 / b_pyramid=2 / b_adapt=2 / b_bias=0 / direct=3 / weightb=1 / weightp=2 / keyint=250 / keyint_min=25 / scenecut=40 / intra_refresh=0 / rc_lookahead=60 / rc=2pass / mbtree=1 / bitrate=5292 / ratetol=1.0 / qcomp=0.60 / qpmin=10 / qpmax=51 / qpstep=4 / cplxblur=20.0 / qblur=0.5 / vbv_maxrate=50000 / vbv_bufsize=50000 / ip_ratio=1.40 / aq=1:1.00 / nal_hrd=none
Default : Yes
Forced : No

Audio #1
ID : 2
Format : AC-3
Format/Info : Audio Coding 3
Mode extension : CM (complete main)
Format settings, Endianness : Big
Codec ID : A_AC3
Duration : 1h 30mn
Bit rate mode : Constant
Bit rate : 384 Kbps
Channel(s) : 2 channels
Channel positions : Front: L R
Sampling rate : 44.1 KHz
Frame rate : 28.711 fps (1536 spf)
Compression mode : Lossy
Stream size : 249 MiB (6%)
Language : Ukrainian
Default : Yes
Forced : No

Audio #2
ID : 3
Format : AC-3
Format/Info : Audio Coding 3
Format profile : Dolby Digital
Mode extension : CM (complete main)
Format settings, Endianness : Big
Codec ID : A_AC3
Duration : 1h 30mn
Bit rate mode : Constant
Bit rate : 384 Kbps
Channel(s) : 2 channels
Channel positions : Front: L R
Sampling rate : 48.0 KHz
Frame rate : 31.250 fps (1536 spf)
Compression mode : Lossy
Stream size : 249 MiB (6%)
Title : Eng
Language : English
Default : No
Forced : No
Скріншоти




Особиста оцінка: 8 - мені сподобалося


Срібний реліз (на рейтинг впливає 50% завантаженого)
 Трекер:    Зареєстрований   

Завантажити / скачати фільм українською



відео для новачків



 Зареєстрований:   2016-04-13 17:42
 Розмір:   3.84 GB 
 Оцінка фільму:   8.3/10 (Голосів: 8)
   
Інші релізи
   Авторитет / Juice (1992) NextDayMinor  1 / 0   1.45 GB   2016-04-13 17:50 
Estranded 
VIP


З нами з: 09.02.14
Востаннє: 09.12.16
Повідомлень: 836

2016-04-13 18:21  
Колись давно бачив цей фільм. Зараз гляну ще раз!
leicheman 
Відео Гуртом - підтримка та поширення
Відео Гуртом - підтримка та поширення


З нами з: 03.07.14
Востаннє: 09.12.16
Повідомлень: 320

2016-04-13 20:21  
о це так,колись "перся" віт таких фільмів де репери хД
зацінемо озвучку для АМС

Ваш часовий пояс: GMT + 2 Години

Нова тема   Відповісти