Завантажити та скачати торренти українською


Качині Історії / DuckTales (Сезон 3-4; серії 25 з 25) (1987-1989) AVC

Нові коментарі

Нова тема   Відповісти
Автор Повідомлення
spalabutyi 
Свій


З нами з: 17.09.09
Востаннє: 03.11.16
Повідомлень: 140

2016-04-12 20:10  
Качині Історії / DuckTales (Сезон 3-4; серії 25 з 25) (1987-1989) AVC


Жанр: анімація, пригоди, комедія
Країна: США
Рік: 1987-1989

Кіностудія / кінокомпанія: Walt Disney Television Animation
Режисер: Девід Блок / David Block
Ролі озвучують:
Скрудж МакДак - Євген Пашин, Крячик - Кaтерина Брaйковська, Квачик - Ганна Соболєва, Кручик - Марина Кукліна, Фентон - Дмитро Сова, Форсаж - Дмитро Гaврилов, Гвинт Недокрут - В'ячеслав Довженко, Дакворт - Максим Кондратюк та інші.







Сюжет:
Жадібний, але добродушний багатій Скрудж МакДак, який має власний грошовий басейн, постійно потрапляє у халепи… І вийти з проблем йому завжди допомагають племінники – Крячик, Квачик і Кручик. Скрудж – найзаможніший качур у світі, та все одно постійно шукає шляхи для збільшення свого капіталу. А разом із капіталом росте й кількість заздрісників, що бажають Скруджу МакДаку якнайшвидше збанкротувати. Тому він і стає жадібним скнарою для всіх оточуючих, але залишається добрим дядечком для своїх племінників.





Відео:
Якість: AVC
кодек:
розмір кадру: 720 × 544
бітрейт: 1200~1800 Kbps

Аудіо:
мова:українська
переклад: дубляж
кодек: 2.0
бітрейт: 192 кб/с

Тривалість серії: 25 серій по 21 хв.
Перелік серій

Сезон 3

3 x 01 - The Land of Trala La / Тра-ля-ляндія
3 x 02 - Allowance Day / Гроші по п’ятницях
3 x 03 - Bubbeo & Juliet / Баббео і Джульета
3 x 04 - The Good Muddahs / Хороші матусі
3 x 05 - My Mother the Psychic / Моя мама екстрасенс
3 x 06 - Metal Attraction / Метал до металу
3 x 07 - Dough Ray Me / Грошопад
3 x 08 - Bubba's Big Brainstorm / Баббина мозкова атака
3 x 09 - The Big Flub / Великий ляп
3 x 10 - A Case of Mistaken Secret Identity / Як не впізнали таємне втілення
3 x 11 - Blue Collar Scrooge / Скрудж на виробництві
3 x 12 - Beaglemania / Барбоманія
3 x 13 - Yuppy Ducks / Бізнес-каченята
3 x 14 - The Bride Wore Stripes / А молода була в смугастому
3 x 15 - The Unbreakable Bin / Незламне сховище
3 x 16 - Attack of the Fifty-Foot Webby / Велика Пір’їнка
3 x 17 - The Masked Mallard / Селезень у масці
3 x 18 - A DuckTales Valentine / Качиний День Валентина
Сезон 4

4 x 01 - Ducky Mountain High / У Качастих горах
4 x 02 - Attack of the Metal Mites / Напад металоїдних кліщів
4 x 03 - The Duck Who Knew Too Much / Качур, що забагато знав
4 x 04 - New Gizmo-Kids on the Block / Нові робо-дітлахи на районі
4 x 05 - Scrooge's Last Adventure / Остання пригода Скруджа
4 x 06 - The Golden Goose (1) / Золота гуска (1)
4 x 07 - The Golden Goose (2) / Золота гуска (2)
MediaInfo

Код:

General
Unique ID                   : 179093208314001656674001161946942127179 (0x86BC18E6DF4EE10DBB1E219A3B03BC4B)
Complete name               : *\DuckTales - 3x11 - Blue Collar Scrooge.mkv
Format                      : Matroska
Format version              : Version 4 / Version 2
File size                   : 209 MiB
Duration                    : 20mn 57s
Overall bit rate            : 1 396 Kbps
Encoded date                : UTC 2016-02-29 14:56:20
Writing application         : mkvmerge v8.9.0 ('Father Daughter') 64bit
Writing library             : libebml v1.3.3 + libmatroska v1.4.4

Video
ID                          : 1
Format                      : AVC
Format/Info                 : Advanced Video Codec
Format profile              : [email protected]
Format settings, CABAC      : Yes
Format settings, ReFrames   : 16 frames
Codec ID                    : V_MPEG4/ISO/AVC
Duration                    : 20mn 57s
Bit rate                    : 1 202 Kbps
Width                       : 720 pixels
Height                      : 544 pixels
Display aspect ratio        : 4:3
Frame rate mode             : Constant
Frame rate                  : 25.000 fps
Color space                 : YUV
Chroma subsampling          : 4:2:0
Bit depth                   : 8 bits
Scan type                   : Progressive
Bits/(Pixel*Frame)          : 0.123
Stream size                 : 180 MiB (86%)
Writing library             : core 148 r2638 7599210
Encoding settings           : cabac=1 / ref=16 / deblock=1:0:0 / analyse=0x3:0x133 / me=umh / subme=9 / psy=1 / psy_rd=0.40:0.00 / mixed_ref=1 / me_range=16 / chroma_me=1 / trellis=2 / 8x8dct=1 / cqm=0 / deadzone=21,11 / fast_pskip=1 / chroma_qp_offset=-2 / threads=6 / lookahead_threads=1 / sliced_threads=0 / nr=0 / decimate=0 / interlaced=0 / bluray_compat=0 / constrained_intra=0 / bframes=5 / b_pyramid=2 / b_adapt=2 / b_bias=0 / direct=3 / weightb=1 / open_gop=0 / weightp=2 / keyint=250 / keyint_min=25 / scenecut=40 / intra_refresh=0 / rc_lookahead=60 / rc=crf / mbtree=1 / crf=22.0 / qcomp=0.60 / qpmin=10 / qpmax=69 / qpstep=4 / vbv_maxrate=62500 / vbv_bufsize=78125 / crf_max=0.0 / nal_hrd=none / filler=0 / ip_ratio=1.40 / aq=1:0.60
Language                    : English
Default                     : Yes
Forced                      : No

Audio
ID                          : 2
Format                      : AC-3
Format/Info                 : Audio Coding 3
Mode extension              : CM (complete main)
Format settings, Endianness : Big
Codec ID                    : A_AC3
Duration                    : 20mn 57s
Bit rate mode               : Constant
Bit rate                    : 192 Kbps
Channel(s)                  : 2 channels
Channel positions           : Front: L R
Sampling rate               : 48.0 KHz
Frame rate                  : 31.250 fps (1536 spf)
Compression mode            : Lossy
Stream size                 : 28.8 MiB (14%)
Title                       : DUB [LeDoyen]
Language                    : Ukrainian
Default                     : Yes
Forced                      : No

Відбитки


Відбитки у повному розмірі




































Срібний реліз (на рейтинг впливає 50% завантаженого)
 Трекер:    Зареєстрований   

Завантажити / скачати мультфільм українською



відео для новачків



 Зареєстрований:   2016-05-03 07:51
 Розмір:   5.27 GB 
 Оцінка мультсеріалу:   10/10 (Голосів: 19)
   
maricus2010 
Свій


З нами з: 16.03.12
Востаннє: 09.12.16
Повідомлень: 60

2016-04-13 22:46  
Ура нарешті!!
Щиро дякую за реліз.

rkononenko 
Відео Гуртом - субтитрування
Відео Гуртом - субтитрування


З нами з: 24.02.09
Востаннє: 09.12.16
Повідомлень: 1140

2016-04-14 03:26  
Цитата:
3 x 1 - The Land of Trala La

Ця серія не записана чи її не показував ПлюсПлюс?

spalabutyi 
Свій


З нами з: 17.09.09
Востаннє: 03.11.16
Повідомлень: 140

2016-04-14 06:25  
rkononenko написано:
Ця серія не записана чи її не показував ПлюсПлюс?


Не записана (двічі Happy

rkononenko 
Відео Гуртом - субтитрування
Відео Гуртом - субтитрування


З нами з: 24.02.09
Востаннє: 09.12.16
Повідомлень: 1140

2016-04-14 07:28  
spalabutyi написано:
Не записана (двічі Happy

І більш ніхто крім вас "Качиних історій" не записував з плюсплюс? Шкода якщо так... Sad (1)

spalabutyi 
Свій


З нами з: 17.09.09
Востаннє: 03.11.16
Повідомлень: 140

2016-04-14 07:55  
rkononenko
Треба на форумі запитати.

EvGaS 
Відео Гуртом - підтримка та поширення
Відео Гуртом - підтримка та поширення


З нами з: 27.02.12
Востаннє: 09.12.16
Повідомлень: 2152

2016-04-14 07:57  
spalabutyi написано:
(Сезон 3-4; серії 24 с 25)

24 з 25

romkop 
Новенький


З нами з: 26.05.09
Востаннє: 08.12.16
Повідомлень: 9

2016-04-26 18:52  
Дякую!!!

Буде радість моїй доньці!

spalabutyi 
Свій


З нами з: 17.09.09
Востаннє: 03.11.16
Повідомлень: 140

2016-04-27 06:43  
2romkop
Хоч комусь Wink (1)

slavik_v_z 
Відео Гуртом - фільмокрай
Відео Гуртом - фільмокрай


З нами з: 22.06.09
Востаннє: 09.12.16
Повідомлень: 467

2016-04-27 14:40  
spalabutyi написано:
3 x 01 - The Land of Trala La

Є запис з каналів TET та Плюс Плюс, але тільки звук.

spalabutyi 
Свій


З нами з: 17.09.09
Востаннє: 03.11.16
Повідомлень: 140

2016-04-27 16:04  
Торрент оновлено. Додано серію 3x01, за наданий звук дякуйте slavik_v_z 
lpershyi 
Попереджень: 2
Попереджень: 2 


З нами з: 04.01.11
Востаннє: 30.11.16
Повідомлень: 2622

2016-06-14 10:57  
spalabutyi
Дякую за 3, 4 сезони!

OlegIron 
Новенький


З нами з: 03.09.15
Востаннє: 05.12.16
Повідомлень: 7

2016-06-17 10:13  
станьте на роздачу, будь ласка
Ваш часовий пояс: GMT + 2 Години

Нова тема   Відповісти