Завантажити та скачати торренти українською


Полювання на монстра / Monster Hunt (2015) 1080p 3D [Half OverUnder] Ukr/Chi

Нові коментарі

Нова тема   Відповісти
Автор Повідомлення
-VipeR- 
VIP


З нами з: 17.07.08
Востаннє: 04.12.16
Повідомлень: 275

2016-04-11 11:02  
Полювання на монстра / Monster Hunt (2015) 1080p 3D [Half OverUnder] Ukr/Chi

Полювання на монстра / Monster Hunt (2015) 1080p 3D [Half OverUnder] Ukr/Chi


Жанр: комедія, фентезі, екшн
Країна: Гонконг, Китай



Кінокомпанія: Edko Films
Режисер: Раман Хьюі
Актори: Боран Цзин, Байхе Бай, Ву Цзян, Сандра Кван-ю Нг, Ерік Цан, Ілейн Цзин, Уоллес Чунг, Тан Вей, Яо Чень, Ні Янь

Сюжет:
Колись давно люди і демони мирно співіснували, але потім людська жадібність призвела рід демонів на грань зникнення... Плодом пристрасті звичайного хлопця Інь Тяня і таємничої незнайомки стає малюк, якому визначено зайняти трон короля демонів. Тепер дивнй парочці доведеться захищати своє чадо від злих демонів і підступних людей. Головним їхнім ворогом стає жорстокий і жадібний Цянь Ху Ге, прагнучий полонити майбутнього короля, щоб набути безмірну силу.


Тривалість: 01:57:04
Якість: 1080p 3D [HalfOverUnder] by ash61
Відео:
кодек:
розмір кадру: 1920 х 1080
бітрейт: 15,2 мб/с

Аудіо # 1:
мова: українська
переклад: професійний дубльований
кодек: 2.0
бітрейт: 192 кб/с

Аудіо # 2:
мова: китайська
переклад: оригінал
кодек: 5.1
бітрейт: 640 кб/с
MediaInfo
Код:
General
Unique ID                      : 188644011353984551648394490789018743022 (0x8DEB83D8FAC93FC1A5B99241B22030EE)
Complete name                  : D:\3D\Monster Hunt (2015) 1080p 3D [HalfOverUnder][Hurtom].mkv
Format                         : Matroska
Format version                 : Version 4 / Version 2
File size                      : 13.1 GiB
Duration                       : 1h 57mn
Overall bit rate               : 16.0 Mbps
Movie name                     : Полювання на монстра / Monster Hunt (2015) 3D
Encoded date                   : UTC 2016-04-11 07:35:03
Writing application            : mkvmerge v8.8.0 ('Wind at my back') 64bit
Writing library                : libebml v1.3.3 + libmatroska v1.4.4

Video
ID                             : 1
Format                         : AVC
Format/Info                    : Advanced Video Codec
Format profile                 : [email protected]
Format settings, CABAC         : Yes
Format settings, ReFrames      : 4 frames
Codec ID                       : V_MPEG4/ISO/AVC
Duration                       : 1h 57mn
Bit rate                       : 15.2 Mbps
Width                          : 1 920 pixels
Height                         : 1 080 pixels
Display aspect ratio           : 16:9
Frame rate mode                : Constant
Frame rate                     : 23.976 (24000/1001) fps
Color space                    : YUV
Chroma subsampling             : 4:2:0
Bit depth                      : 8 bits
Scan type                      : Progressive
Bits/(Pixel*Frame)             : 0.305
Stream size                    : 12.4 GiB (95%)
Title                          : by Ash61
Writing library                : core 146 r2538 121396c
Encoding settings              : cabac=1 / ref=4 / deblock=1:-3:-3 / analyse=0x3:0x113 / me=umh / subme=10 / psy=1 / psy_rd=1.00:0.00 / mixed_ref=1 / me_range=32 / chroma_me=1 / trellis=2 / 8x8dct=1 / cqm=0 / deadzone=21,11 / fast_pskip=1 / chroma_qp_offset=-2 / threads=12 / lookahead_threads=3 / sliced_threads=0 / nr=0 / decimate=1 / interlaced=0 / bluray_compat=0 / constrained_intra=0 / bframes=11 / b_pyramid=2 / b_adapt=2 / b_bias=0 / direct=3 / weightb=1 / open_gop=0 / weightp=2 / keyint=250 / keyint_min=23 / scenecut=40 / intra_refresh=0 / rc_lookahead=60 / rc=crf / mbtree=1 / crf=16.0 / qcomp=0.70 / qpmin=0 / qpmax=69 / qpstep=4 / vbv_maxrate=40000 / vbv_bufsize=30000 / crf_max=0.0 / nal_hrd=none / filler=0 / frame-packing=4 / ip_ratio=1.40 / aq=1:0.70
Language                       : Chinese
Default                        : Yes
Forced                         : No

Audio #1
ID                             : 2
Format                         : AC-3
Format/Info                    : Audio Coding 3
Mode extension                 : CM (complete main)
Format settings, Endianness    : Big
Codec ID                       : A_AC3
Duration                       : 1h 57mn
Bit rate mode                  : Constant
Bit rate                       : 192 Kbps
Channel(s)                     : 2 channels
Channel positions              : Front: L R
Sampling rate                  : 48.0 KHz
Frame rate                     : 31.250 fps (1536 spf)
Compression mode               : Lossy
Stream size                    : 161 MiB (1%)
Title                          : Ukr 192
Language                       : Ukrainian
Default                        : Yes
Forced                         : Yes

Audio #2
ID                             : 3
Format                         : AC-3
Format/Info                    : Audio Coding 3
Mode extension                 : CM (complete main)
Format settings, Endianness    : Big
Codec ID                       : A_AC3
Duration                       : 1h 57mn
Bit rate mode                  : Constant
Bit rate                       : 640 Kbps
Channel(s)                     : 6 channels
Channel positions              : Front: L C R, Side: L R, LFE
Sampling rate                  : 48.0 KHz
Frame rate                     : 31.250 fps (1536 spf)
Compression mode               : Lossy
Stream size                    : 536 MiB (4%)
Title                          : Original - BD 3D
Language                       : Chinese
Default                        : No
Forced                         : No

Menu
00:00:00.000                   : :1
00:08:56.494                   : :2
00:19:49.104                   : :3
00:29:36.857                   : :4
00:40:09.532                   : :5
00:47:49.240                   : :6
00:58:35.762                   : :7
01:09:18.570                   : :8
01:17:06.496                   : :9
01:28:18.710                   : :10
01:36:06.594                   : :11
01:48:05.270                   : :12
Скріншоти
Джерело: &

Подяка за українську доріжку пану Vasua95

Відео для перегляду на 3D обладнанні!


 Трекер:    Зареєстрований   

Завантажити / скачати фільм українською



відео для новачків



 Зареєстрований:   2016-04-11 11:02
 Розмір:   13.08 GB 
 Оцінка фільму:   7/10 (Голосів: 3)
   
Інші релізи
andreu1999 
Свій


З нами з: 20.10.14
Востаннє: 02.12.16
Повідомлень: 65

2016-04-11 17:20  
Як фільм? Варто дивитися?
Ваш часовий пояс: GMT + 2 Години

Нова тема   Відповісти