Завантажити та скачати торренти українською


Людина-оркестр / L'homme orchestre (1970) 3xUkr/Fra | Sub Fra/Eng

Нові коментарі

Нова тема   Відповісти
Автор Повідомлення
Anonymous 







2016-04-10 11:46  
Людина-оркестр / L'homme orchestre (1970) 3xUkr/Fra | Sub Fra/Eng

Людина-оркестр / L'homme orchestre (1970) 3xUkr/Fra | Sub Fra/Eng

Альтернативні постери




повнорозмірні зображення відкриються по кліку (з натиснутим CTRL чи кліком середньою кнопкою мишки - у новій вкладці)


Жанр: комедія, мюзикл
Країна: Франція



Кінокомпанія: Gaumont
Режисер: Серж Корбер / Serge Korber
Композитор: Франсуа де Рубе / François de Roubaix
Актори: Луї де Фюнес / Louis de Funès, Даніель Белю / Daniel Bellus, Макс Деро / Max Desrau, Ноель Адам / Noëlle Adam, Олівьє Де Фюнес / Olivier De Funès, Тиберіо Мюржія / Tiberio Murgia, Вітторіа де Сільверіо / Vittoria Di Silverio, Паоло Тодеско / Paola Tedesco, Франко Вольпі / Franco Volpi та інші

Сюжет:
Балетний імпресаріо Еван Еванс (Луї де Фюнес) разом зі своїм племінником Філіпом ретельно слідкує за тим, щоб танцівниці його трупи не контактували з чоловіками, бо це може завадити їх роботі. Але під час турне по Італії стає зрозуміло, що одна з танцівниць має немовля. Тирану Евансу доводиться взяти опікунство над малюком, якого він вважає сином Філіпа.
Через деякий час з’являється ще одна дитина, цього разу – справжній син. Новоспечений дідусь ледь не божеволіє, а велике турне згодом перетворюється на суцільну циркову виставу.


Тривалість: 01:25:30
Якість:
Відео:
кодек:
розмір кадру: 720 х 304
бітрейт: 1834 кбіт/с

Аудіо # 1:
мова: українська
переклад: двоголосий закадровий | Студія "ТВ+" на замовлення "Аврора Дистрибушн"
ролі озвучили: Дмитро Завадський і Тетяна Зіновенко
кодек: 2.0
бітрейт: 192 кбіт/с

Аудіо # 2:
мова: українська
переклад: двоголосий закадровий
ролі озвучили: Олександр Завальський і Ніна Касторф
кодек: 2.0
бітрейт: 192 кбіт/с

Аудіо # 3:
мова: українська
переклад: двоголосий закадровий
ролі озвучили: Ярослав Чорненький і Наталя Задніпровська
кодек: 2.0
бітрейт: 192 кбіт/с

Аудіо # 4:
мова: французька
переклад: оригінал
кодек: 2.0
бітрейт: 192 кбіт/с

Субтитри :
мова: французька (завантажити), англійська (завантажити)
тип: програмні (м'які)
формат: *.srt
MediaInfo
Код:
General
Complete name               : L'homme orchestre (1970) [3xUkr,Fra] [Hurtom&HQClub].avi
Format                      : AVI
Format/Info                 : Audio Video Interleave
File size                   : 1.57 GiB
Duration                    : 1h 25mn
Overall bit rate            : 2 627 Kbps
Movie name                  : Людина-оркестр / The Band / L'homme orchestre (1970)
Director                    : igor911 & yaroslaigor
Genre                       : комедія, мюзикл
Writing application         : VirtualDubModRus 1.5.10.2 (build 2540/release)
Writing library             : VirtualDubMod build 2540/release
Copyright                   : Hurtom & HQCLUB
Comment                     : 10.04.2016

Video
ID                          : 0
Format                      : MPEG-4 Visual
Format profile              : Advanced [email protected]
Format settings, BVOP       : 1
Format settings, QPel       : No
Format settings, GMC        : No warppoints
Format settings, Matrix     : Custom
Codec ID                    :
Codec ID/Hint               :
Duration                    : 1h 25mn
Bit rate                    : 1 836 Kbps
Width                       : 720 pixels
Height                      : 304 pixels
Display aspect ratio        : 2.35:1
Frame rate                  : 24.000 fps
Color space                 : YUV
Chroma subsampling          : 4:2:0
Bit depth                   : 8 bits
Scan type                   : Progressive
Compression mode            : Lossy
Bits/(Pixel*Frame)          : 0.350
Stream size                 : 1.10 GiB (70%)
Writing library             : 65

Audio #1
ID                          : 1
Format                      : AC-3
Format/Info                 : Audio Coding 3
Mode extension              : CM (complete main)
Format settings, Endianness : Big
Codec ID                    : 2000
Duration                    : 1h 25mn
Bit rate mode               : Constant
Bit rate                    : 192 Kbps
Channel(s)                  : 2 channels
Channel positions           : Front: L R
Sampling rate               : 48.0 KHz
Frame rate                  : 31.250 fps (1536 spf)
Compression mode            : Lossy
Stream size                 : 117 MiB (7%)
Alignment                   : Split accross interleaves
Interleave, duration        : 42 ms (1.00 video frame)
Interleave, preload duratio : 500 ms
Title                       : UKR DVO [TV+]

Audio #2
ID                          : 2
Format                      : AC-3
Format/Info                 : Audio Coding 3
Mode extension              : CM (complete main)
Format settings, Endianness : Big
Codec ID                    : 2000
Duration                    : 1h 25mn
Bit rate mode               : Constant
Bit rate                    : 192 Kbps
Channel(s)                  : 2 channels
Channel positions           : Front: L R
Sampling rate               : 48.0 KHz
Frame rate                  : 31.250 fps (1536 spf)
Compression mode            : Lossy
Stream size                 : 117 MiB (7%)
Alignment                   : Split accross interleaves
Interleave, duration        : 42 ms (1.00 video frame)
Interleave, preload duratio : 500 ms
Title                       : UKR DVO [1+1]

Audio #3
ID                          : 3
Format                      : AC-3
Format/Info                 : Audio Coding 3
Mode extension              : CM (complete main)
Format settings, Endianness : Big
Codec ID                    : 2000
Duration                    : 1h 25mn
Bit rate mode               : Constant
Bit rate                    : 192 Kbps
Channel(s)                  : 2 channels
Channel positions           : Front: L R
Sampling rate               : 48.0 KHz
Frame rate                  : 31.250 fps (1536 spf)
Compression mode            : Lossy
Stream size                 : 117 MiB (7%)
Alignment                   : Split accross interleaves
Interleave, duration        : 42 ms (1.00 video frame)
Interleave, preload duratio : 500 ms
Title                       : UKR DVO [STB]

Audio #4
ID                          : 4
Format                      : AC-3
Format/Info                 : Audio Coding 3
Mode extension              : CM (complete main)
Format settings, Endianness : Big
Codec ID                    : 2000
Duration                    : 1h 25mn
Bit rate mode               : Constant
Bit rate                    : 192 Kbps
Channel(s)                  : 2 channels
Channel positions           : Front: L R
Sampling rate               : 48.0 KHz
Frame rate                  : 31.250 fps (1536 spf)
Compression mode            : Lossy
Stream size                 : 117 MiB (7%)
Alignment                   : Split accross interleaves
Interleave, duration        : 42 ms (1.00 video frame)
Interleave, preload duratio : 500 ms
Title                       : FRE [Original]


Джерела та подяки: &
українські доріжки - ТВ+: igor911 - зведення, Sando7 - запис з ТБ; 1+1: rooster - зведення, Technomate - запис з ТБ; СТБ: rooster; українізований постер (під спойлером) - rooster; фільмографії акторів та інформація про озвучення - Віктор (всі - Гуртом).

ЗАЛИШАЙТЕСЬ ЯКОМОГА ДОВШЕ НА РОЗДАЧІ!

СКАЧАВ САМ - ДАЙ СКАЧАТИ ІНШИМ


Срібний реліз (на рейтинг впливає 50% завантаженого)
 Трекер:    Зареєстрований   

Завантажити / скачати фільм українською



відео для новачків



 Зареєстрований:   2016-04-10 19:37
 Розмір:   1.57 GB 
 Оцінка фільму:   4.4/10 (Голосів: 18)
   
Інші релізи
Anonymous 







2016-04-10 11:47  
720p
Ваш часовий пояс: GMT + 2 Години

Нова тема   Відповісти