Завантажити та скачати торренти українською


Людина-оркестр / L'homme orchestre (1970) 720p 3xUkr/Fra | Sub Fra/Eng

Нові коментарі

Нова тема   Відповісти
Автор Повідомлення
Anonymous 







2016-04-10 10:16  
Людина-оркестр / L'homme orchestre (1970) 720p 3xUkr/Fra | Sub Fra/Eng

Людина-оркестр / L'homme orchestre (1970) 720p 3xUkr/Fra | Sub Fra/Eng

Альтернативні постери




повнорозмірні зображення відкриються по кліку (з натиснутим CTRL чи кліком середньою кнопкою мишки - у новій вкладці)


Жанр: комедія, мюзикл
Країна: Франція



Кінокомпанія: Gaumont
Режисер: Серж Корбер / Serge Korber
Композитор: Франсуа де Рубе / François de Roubaix
Актори: Луї де Фюнес / Louis de Funès, Даніель Белю / Daniel Bellus, Макс Деро / Max Desrau, Ноель Адам / Noëlle Adam, Олівьє Де Фюнес / Olivier De Funès, Тиберіо Мюржія / Tiberio Murgia, Вітторіа де Сільверіо / Vittoria Di Silverio, Паоло Тодеско / Paola Tedesco, Франко Вольпі / Franco Volpi та інші

Сюжет:
Балетний імпресаріо Еван Еванс (Луї де Фюнес) разом зі своїм племінником Філіпом ретельно слідкує за тим, щоб танцівниці його трупи не контактували з чоловіками, бо це може завадити їх роботі. Але під час турне по Італії стає зрозуміло, що одна з танцівниць має немовля. Тирану Евансу доводиться взяти опікунство над малюком, якого він вважає сином Філіпа.
Через деякий час з’являється ще одна дитина, цього разу – справжній син. Новоспечений дідусь ледь не божеволіє, а велике турне згодом перетворюється на суцільну циркову виставу.


Тривалість: 01:25:30
Якість: 720p
Відео:
кодек:
розмір кадру: 1280 х 546
бітрейт: 7960 кб/с [crf=16.5]

Аудіо # 1:
мова: українська
переклад: двоголосий закадровий | Студія "ТВ+" на замовлення "Аврора Дистрибушн"
ролі озвучили: Дмитро Завадський і Тетяна Зіновенко
кодек: 2.0
бітрейт: 192 кб/с

Аудіо # 2:
мова: українська
переклад: двоголосий закадровий
ролі озвучили: Олександр Завальський і Ніна Касторф
кодек: 2.0
бітрейт: 192 кб/с

Аудіо # 3:
мова: українська
переклад: двоголосий закадровий
ролі озвучили: Ярослав Чорненький і Наталя Задніпровська
кодек: 2.0
бітрейт: 192 кб/с

Аудіо # 4:
мова: французька
переклад: оригінал
кодек: FLAC
бітрейт: 326 кб/с

Аудіо # 5:
мова: французька
переклад: коментарі
кодек: 2.0
бітрейт: 65 кб/с

Субтитри # 1:
мова: французька
тип: програмні (м'які)
формат: *.srt

Субтитри #2:
мова: англійська
тип: програмні (м'які)
формат: *.srt

Збережено оригінальні розділи, як на Blu-ray
MediaInfo
Код:
Complete name               : L'homme orchestre (1970) [3xUkr,Fra sub.Fra,Eng] 720p [Hurtom&HDClub].mkv
Format                      : Matroska
Format version              : Version 4 / Version 2
File size                   : 5.33 GiB
Duration                    : 1h 25mn
Overall bit rate mode       : Variable
Overall bit rate            : 8 930 Kbps
Movie name                  : Людина-оркестр / L'homme orchestre (1970) [3xUkr,Fra sub.Fra,Eng] 720p [Hurtom&HDClub] by igor911
Encoded date                : UTC 2016-04-10 08:37:28
Writing application         : mkvmerge v9.0.1 ('Obstacles') 64bit
Writing library             : libebml v1.3.3 + libmatroska v1.4.4
Cover                       : Yes
Attachments                 : cover.jpg

Video
ID                          : 1
Format                      : AVC
Format/Info                 : Advanced Video Codec
Format profile              : [email protected]
Format settings, CABAC      : Yes
Format settings, ReFrames   : 11 frames
Codec ID                    : V_MPEG4/ISO/AVC
Duration                    : 1h 25mn
Bit rate                    : 7 961 Kbps
Width                       : 1 280 pixels
Height                      : 546 pixels
Display aspect ratio        : 2.35:1
Frame rate mode             : Constant
Frame rate                  : 24.000 fps
Color space                 : YUV
Chroma subsampling          : 4:2:0
Bit depth                   : 8 bits
Scan type                   : Progressive
Bits/(Pixel*Frame)          : 0.475
Stream size                 : 4.75 GiB (89%)
Title                       : Людина-оркестр / L'homme orchestre (1970) 720p [SbR]
Writing library             : core 148 r2638+53 bb29004 t_mod_Custom [[email protected] X86_64]
Encoding settings           : cabac=1 / ref=11 / deblock=1:-3:-3 / analyse=0x3:0x133 / me=esa / subme=10 / psy=1 / fade_compensate=0.00 / psy_rd=1.00:0.05 / mixed_ref=1 / me_range=24 / chroma_me=1 / trellis=2 / 8x8dct=1 / cqm=0 / deadzone=21,11 / fast_pskip=0 / chroma_qp_offset=-3 / threads=6 / lookahead_threads=1 / sliced_threads=0 / nr=0 / decimate=1 / interlaced=0 / bluray_compat=0 / constrained_intra=0 / fgo=0 / bframes=11 / b_pyramid=2 / b_adapt=2 / b_bias=0 / direct=3 / weightb=1 / open_gop=0 / weightp=2 / keyint=250 / keyint_min=24 / scenecut=40 / intra_refresh=0 / rc_lookahead=60 / rc=crf / mbtree=0 / crf=16.5000 / qcomp=0.70 / qpmin=0:0:0 / qpmax=69:69:69 / qpstep=4 / vbv_maxrate=62500 / vbv_bufsize=78125 / crf_max=0.0 / nal_hrd=none / filler=0 / ip_ratio=1.30 / pb_ratio=1.20 / aq=1:0.65 / aq-sensitivity=10.00 / aq-factor=1.00:1.00:1.00 / aq2=0 / aq3=0
Language                    : English
Default                     : Yes
Forced                      : No
Color range                 : Limited
Color primaries             : BT.709
Transfer characteristics    : BT.709
Matrix coefficients         : BT.709

Audio #1
ID                          : 2
Format                      : AC-3
Format/Info                 : Audio Coding 3
Mode extension              : CM (complete main)
Format settings, Endianness : Big
Codec ID                    : A_AC3
Duration                    : 1h 25mn
Bit rate mode               : Constant
Bit rate                    : 192 Kbps
Channel(s)                  : 2 channels
Channel positions           : Front: L R
Sampling rate               : 48.0 KHz
Frame rate                  : 31.250 fps (1536 spf)
Compression mode            : Lossy
Stream size                 : 117 MiB (2%)
Title                       : DVO [TV+,Aurora Distribution,EnterFilm] 2.0 192 kbps [Hurtom-igor911,Sando7]
Language                    : Ukrainian
Default                     : Yes
Forced                      : No

Audio #2
ID                          : 3
Format                      : AC-3
Format/Info                 : Audio Coding 3
Mode extension              : CM (complete main)
Format settings, Endianness : Big
Codec ID                    : A_AC3
Duration                    : 1h 25mn
Bit rate mode               : Constant
Bit rate                    : 192 Kbps
Channel(s)                  : 2 channels
Channel positions           : Front: L R
Sampling rate               : 48.0 KHz
Frame rate                  : 31.250 fps (1536 spf)
Compression mode            : Lossy
Stream size                 : 117 MiB (2%)
Title                       : DVO [1+1] 2.0 192 kbps [Hurtom-rooster,Technomate]
Language                    : Ukrainian
Default                     : No
Forced                      : No

Audio #3
ID                          : 4
Format                      : AC-3
Format/Info                 : Audio Coding 3
Mode extension              : CM (complete main)
Format settings, Endianness : Big
Codec ID                    : A_AC3
Duration                    : 1h 25mn
Bit rate mode               : Constant
Bit rate                    : 192 Kbps
Channel(s)                  : 2 channels
Channel positions           : Front: L R
Sampling rate               : 48.0 KHz
Frame rate                  : 31.250 fps (1536 spf)
Compression mode            : Lossy
Stream size                 : 117 MiB (2%)
Title                       : DVO [STB] 2.0 192 kbps [Hurtom-rooster]
Language                    : Ukrainian
Default                     : No
Forced                      : No

Audio #4
ID                          : 5
Format                      : FLAC
Format/Info                 : Free Lossless Audio Codec
Codec ID                    : A_FLAC
Duration                    : 1h 25mn
Bit rate mode               : Variable
Bit rate                    : 326 Kbps
Channel(s)                  : 2 channels
Channel positions           : Front: L R
Sampling rate               : 48.0 KHz
Frame rate                  : 11.719 fps (4096 spf)
Bit depth                   : 16 bits
Stream size                 : 199 MiB (4%)
Title                       : Original, FLAC 2.0 326 kbps
Writing library             : libFLAC 1.2.1 (UTC 2007-09-17)
Language                    : French
Default                     : No
Forced                      : No

Audio #5
ID                          : 6
Format                      :
Format/Info                 : Advanced Audio Codec
Format profile              : LC
Codec ID                    : A_AAC
Duration                    : 1h 25mn
Bit rate                    : 63.6 Kbps
Channel(s)                  : 2 channels
Channel positions           : Front: L R
Sampling rate               : 48.0 KHz
Frame rate                  : 46.875 fps (1024 spf)
Compression mode            : Lossy
Delay relative to video     : 9ms
Stream size                 : 38.9 MiB (1%)
Title                       : commentary, 2.0 65 kbps
Language                    : French
Default                     : No
Forced                      : No

Text #1
ID                          : 7
Format                      : UTF-8
Codec ID                    : S_TEXT/UTF8
Codec ID/Info               : UTF-8 Plain Text
Duration                    : 1h 25mn
Bit rate                    : 36 bps
Count of elements           : 1096
Stream size                 : 22.9 KiB (0%)
Language                    : French
Default                     : No
Forced                      : No

Text #2
ID                          : 8
Format                      : UTF-8
Codec ID                    : S_TEXT/UTF8
Codec ID/Info               : UTF-8 Plain Text
Duration                    : 1h 18mn
Bit rate                    : 28 bps
Count of elements           : 395
Stream size                 : 16.2 KiB (0%)
Language                    : English
Default                     : No
Forced                      : No

Menu
00:00:00.000                : en:00:00:00.000
00:05:14.917                : en:00:05:14.917
00:11:43.875                : en:00:11:43.875
00:19:27.458                : en:00:19:27.458
00:26:35.417                : en:00:26:35.417
00:36:55.083                : en:00:36:55.083
00:45:57.833                : en:00:45:57.833
00:54:25.792                : en:00:54:25.792
01:01:03.125                : en:01:01:03.125
01:10:28.417                : en:01:10:28.417
01:17:12.750                : en:01:17:12.750
01:20:18.958                : en:01:20:18.958
Оригінал <----------> Ріп







Джерела та подяки: &
українські доріжки - ТВ+: igor911 - зведення, Sando7 - запис з ТБ; 1+1: rooster - зведення, Technomate - запис з ТБ; СТБ: rooster; українізований постер (під спойлером) - rooster; фільмографії акторів та інформація про озвучення - Віктор (всі - Гуртом).

ЗАЛИШАЙТЕСЬ ЯКОМОГА ДОВШЕ НА РОЗДАЧІ!
СКАЧАВ САМ - ДАЙ СКАЧАТИ ІНШИМ


Срібний реліз (на рейтинг впливає 50% завантаженого)
 Трекер:    Зареєстрований   

Завантажити / скачати фільм українською



відео для новачків



 Зареєстрований:   2016-04-10 11:34
 Розмір:   5.33 GB 
 Оцінка фільму:   4.2/10 (Голосів: 17)
   
Інші релізи
bot 
робот


З нами з: 30.09.07
Востаннє: 26.05.05
Повідомлень: 15968

2016-04-10 11:34  
Тему перенесено з Анонси релізів до форуму Фільми в HD


igor911

Ваш часовий пояс: GMT + 2 Години

Нова тема   Відповісти