Завантажити та скачати торренти українською


Бандити / Bandits (2001) 2xUkr/Eng | Sub Ukr/Eng

Нові коментарі

Нова тема   Відповісти
Автор Повідомлення
Anonymous 







2016-04-07 03:17  
Бандити / Bandits (2001) 2xUkr/Eng | Sub Ukr/Eng

Бандити / Bandits (2001) 2xUkr/Eng | Sub Ukr/Eng

Альтернативні обкладинки та постери

Бандити / Bandits (2001) 2xUkr/Eng | Sub Ukr/Eng








повнорозмірні зображення відкриються по кліку (з натиснутим CTRL чи кліком середньою кнопкою мишки - у новій вкладці)


Жанр: комедія, кримінальний, драма
Країна: США



Кінокомпанія: Metro-Goldwyn-Mayer (MGM), Hyde Park Entertainment, Empire Pictures
Режисер: Баррі Левінсон / Barry Levinson
Композитор: Крістофер Янґ / Christopher Young
Актори: Брюс Вілліс / Bruce Willis, Біллі Боб Торнтон / Billy Bob Thornton, Кейт Бланшет / Cate Blanchett, Трой Ґеріті / Troy Garity, Браян Ф. О’Бірн / Brian F. O'Byrne, Стейсі Тревіс / Stacey Travis, Дженуарі Джонс / January Jones та інші

Сюжет:
Чемний Джо і його партнер-іпохондрик Тері втекли із в'язниці. Утікачі грабують банки, щоб зібрати гроші для свого "законного" життя на півдні кордону США. Вони залишають після себе хаос, розбиті машини й т.д. і т.п. - коротше те, що обожнює публіка. Їхні плани порушуються тоді, коли вони зненацька закохуються в Кейт заручницю, яку вони викрали під час останнього пограбування. Разом Джо і Тері - найбільш щасливі грабіжники банків в Американській історії, але з появою Кейт, схоже, усе стає навпаки...


Рейтинг MPAA: PG-13 - дітям до 13 років перегляд не бажаний
Вікова категорія: 12+

Тривалість: 02:03:00
Якість:
Відео:
кодек:
розмір кадру: 720x304
бітрейт: 1765 кбіт/с

Аудіо # 1:
мова: українська
переклад: багатоголосий закадровий
ролі озвучили: Брюс Вілліс — Михайло Жонін, Біллі Боб Торнтон — Олег Лепенець, Кейт Бланшет — Людмила Ардельян, Анатолій Зіновенко, Олена Яблучна, Дмитро Завадський, Наталя Ярошенко, Юрій Коваленко, Лариса Руснак, Андрій Бурлуцький, Ніна Касторф, Павло Скороходько, Максим Кондратюк, Юрій Кудрявець, Олесь Гімбаржевський, Андрій Твердак, Євген Пашин, Катерина Буцька та інші.
кодек: 2.0
бітрейт: 192 кбіт/с
примітки:
Цитата:
- на відсутній у трансляції 1+1 епізод з 01:58:25 по 01:58:53 зроблено вставку з озвученням 2+2;
- на неозвучений епізод 01:59:30 - 02:01:33 є форсовані субтитри


Аудіо # 2:
мова: українська
переклад: багатоголосий закадровий
кодек: 5.1
бітрейт: 384 кбіт/с
примітка: на неозвучений епізод 01:59:30 - 02:01:33 є форсовані субтитри

Аудіо # 3:
мова: англійська
переклад: оригінал
кодек: 5.1
бітрейт: 384 кбіт/с

Субтитри:
мова: українська (форсовані, повні)
тип: програмні (м'які)
формат: *.srt

Субтитри:
мова: англійська (повні, SDH, повні+пісні)
тип: програмні (м'які)
формат: *.srt
MediaInfo
Код:
General
Complete name               : Bandits (2001) [2xUkr,Eng] [Hurtom&HQClub].avi
Format                      : AVI
Format/Info                 : Audio Video Interleave
Format profile              : OpenDML
File size                   : 2.35 GiB
Duration                    : 2h 3mn
Overall bit rate            : 2 737 Kbps
Movie name                  : Бандити / Bandits (2001)
Director                    : igor911&sociolog_melvas
Genre                       : комедія, кримінальний, драма
Writing application         : VirtualDubModRus 1.5.10.2 (build 2540/release)
Writing library             : VirtualDubMod build 2540/release
Copyright                   : HURTOM&HQCLUB
Comment                     : 08.04.2016

Video
ID                          : 0
Format                      : MPEG-4 Visual
Format profile              : Advanced [email protected]
Format settings, BVOP       : 1
Format settings, QPel       : No
Format settings, GMC        : No warppoints
Format settings, Matrix     : Custom
Codec ID                    :
Codec ID/Hint               :
Duration                    : 2h 3mn
Bit rate                    : 1 754 Kbps
Width                       : 720 pixels
Height                      : 304 pixels
Display aspect ratio        : 2.35:1
Frame rate                  : 23.976 (24000/1001) fps
Color space                 : YUV
Chroma subsampling          : 4:2:0
Bit depth                   : 8 bits
Scan type                   : Progressive
Compression mode            : Lossy
Bits/(Pixel*Frame)          : 0.334
Stream size                 : 1.51 GiB (64%)
Writing library             : 65

Audio #1
ID                          : 1
Format                      : AC-3
Format/Info                 : Audio Coding 3
Mode extension              : CM (complete main)
Format settings, Endianness : Big
Codec ID                    : 2000
Duration                    : 2h 3mn
Bit rate mode               : Constant
Bit rate                    : 192 Kbps
Channel(s)                  : 2 channels
Channel positions           : Front: L R
Sampling rate               : 48.0 KHz
Frame rate                  : 31.250 fps (1536 spf)
Compression mode            : Lossy
Stream size                 : 169 MiB (7%)
Alignment                   : Split accross interleaves
Interleave, duration        : 42 ms (1.00 video frame)
Interleave, preload duratio : 500 ms
Title                       : Ukr MVO [1+1]

Audio #2
ID                          : 2
Format                      : AC-3
Format/Info                 : Audio Coding 3
Mode extension              : CM (complete main)
Format settings, Endianness : Big
Codec ID                    : 2000
Duration                    : 2h 3mn
Bit rate mode               : Constant
Bit rate                    : 384 Kbps
Channel(s)                  : 6 channels
Channel positions           : Front: L C R, Side: L R, LFE
Sampling rate               : 48.0 KHz
Frame rate                  : 31.250 fps (1536 spf)
Compression mode            : Lossy
Stream size                 : 338 MiB (14%)
Alignment                   : Split accross interleaves
Interleave, duration        : 42 ms (1.00 video frame)
Interleave, preload duratio : 500 ms
Title                       : Ukr MVO [2+2]

Audio #3
ID                          : 3
Format                      : AC-3
Format/Info                 : Audio Coding 3
Mode extension              : CM (complete main)
Format settings, Endianness : Big
Codec ID                    : 2000
Duration                    : 2h 3mn
Bit rate mode               : Constant
Bit rate                    : 384 Kbps
Channel(s)                  : 6 channels
Channel positions           : Front: L C R, Side: L R, LFE
Sampling rate               : 48.0 KHz
Frame rate                  : 31.250 fps (1536 spf)
Compression mode            : Lossy
Stream size                 : 338 MiB (14%)
Alignment                   : Split accross interleaves
Interleave, duration        : 42 ms (1.00 video frame)
Interleave, preload duratio : 500 ms
Title                       : Eng


Джерело: &
українські доріжки - 1+1: igor911 - зведення, ratbol - запис з ТБ; 2+2: Lan - зведення, igor911 - синхронізація під blu-ray, karvai0 - запис з ТБ; українські субтитри - автор машинного перекладу з російської невідомий (взято з hdclub'у), igor911 - редагування та таймінг, українізований постер - Zetonik-z; фільмографії акторів та інформація про озвучення - Віктор (всі - Гуртом).

Особиста оцінка: 8 - мені сподобалося


Срібний реліз (на рейтинг впливає 50% завантаженого)
 Трекер:    Зареєстрований   

Завантажити / скачати фільм українською



відео для новачків



 Зареєстрований:   2016-04-08 16:52
 Розмір:   2.35 GB 
 Оцінка фільму:   5.3/10 (Голосів: 21)
   
Інші релізи
   Бандити / Bandits (2001) 720p 2xUkr/Eng | Sub Ukr/Multi igor911  2 / 0   6.3 GB   2016-04-08 15:45 
   Бандити / Bandits (2001) AVC Jatx_11  2 / 0   2.29 GB   2011-09-22 20:56 
boroznaya 
VIP


З нами з: 02.11.12
Востаннє: 11.12.16
Повідомлень: 1887

2016-08-07 08:14  
Середній фільм, нічого особливого. Вдруге не переглядатиму. Спасибі за реліз.
Ваш часовий пояс: GMT + 2 Години

Нова тема   Відповісти