Завантажити та скачати торренти українською


Бандити / Bandits (2001) 720p 2xUkr/Eng | Sub Ukr/Multi

Нові коментарі

Нова тема   Відповісти
Автор Повідомлення
Anonymous 







2016-04-07 02:56  
Бандити / Bandits (2001) 720p 2xUkr/Eng | Sub Ukr/Multi

Бандити / Bandits (2001) 720p 2xUkr/Eng | Sub Ukr/Multi

Альтернативні обкладинки та постери

Бандити / Bandits (2001) 720p 2xUkr/Eng | Sub Ukr/Multi








повнорозмірні зображення відкриються по кліку (з натиснутим CTRL чи кліком середньою кнопкою мишки - у новій вкладці)


Жанр: комедія, кримінальний, драма
Країна: США



Кінокомпанія: Metro-Goldwyn-Mayer (MGM), Hyde Park Entertainment, Empire Pictures
Режисер: Баррі Левінсон / Barry Levinson
Композитор: Крістофер Янґ / Christopher Young
Актори: Брюс Вілліс / Bruce Willis, Біллі Боб Торнтон / Billy Bob Thornton, Кейт Бланшет / Cate Blanchett, Трой Ґеріті / Troy Garity, Браян Ф. О’Бірн / Brian F. O'Byrne, Стейсі Тревіс / Stacey Travis, Дженуарі Джонс / January Jones та інші

Сюжет:
Чемний Джо і його партнер-іпохондрик Тері втекли із в'язниці. Утікачі грабують банки, щоб зібрати гроші для свого "законного" життя на півдні кордону США. Вони залишають після себе хаос, розбиті машини й т.д. і т.п. - коротше те, що обожнює публіка. Їхні плани порушуються тоді, коли вони зненацька закохуються в Кейт заручницю, яку вони викрали під час останнього пограбування. Разом Джо і Тері - найбільш щасливі грабіжники банків в Американській історії, але з появою Кейт, схоже, усе стає навпаки...


Рейтинг MPAA: PG-13 - дітям до 13 років перегляд не бажаний
Вікова категорія: 12+

Тривалість: 02:03:00
Якість: 720p
Відео:
кодек:
розмір кадру: 1280 х 548
бітрейт: 5236 кбіт/с [crf=17.2]

Аудіо # 1:
мова: українська
переклад: багатоголосий закадровий
ролі озвучили: Брюс Вілліс — Михайло Жонін, Біллі Боб Торнтон — Олег Лепенець, Кейт Бланшет — Людмила Ардельян, Анатолій Зіновенко, Олена Яблучна, Дмитро Завадський, Наталя Ярошенко, Юрій Коваленко, Лариса Руснак, Андрій Бурлуцький, Ніна Касторф, Павло Скороходько, Максим Кондратюк, Юрій Кудрявець, Олесь Гімбаржевський, Андрій Твердак, Євген Пашин, Катерина Буцька та інші.
кодек: 2.0
бітрейт: 192 кбіт/с
примітки:
Цитата:
- на відсутній у трансляції 1+1 епізод з 01:58:25 по 01:58:53 зроблено вставку з озвученням 2+2;
- на неозвучений епізод 01:59:30 - 02:01:33 є форсовані субтитри


Аудіо # 2:
мова: українська
переклад: багатоголосий закадровий
кодек: 5.1
бітрейт: 384 кбіт/с
примітка: на неозвучений епізод 01:59:30 - 02:01:33 є форсовані субтитри

Аудіо # 3:
мова: англійська
переклад: оригінал
кодек: 5.1
бітрейт: 1509 кбіт/с

Субтитри # 1-2:
мова: українська (форсовані, повні)
тип: програмні (м'які)
формат: *.srt

Субтитри # 3-6:
мова: англійська (повні, SDH, повні+пісні, повні+пісні SDH)
тип: програмні (м'які)
формат: *.srt

Субтитри # 7-12:
мова: чеська, данська, французька, португальська, іспанська, в'єтнамська)
тип: програмні (м'які)
формат: *.srt

Збережено оригінальні розділи, як на Blu-ray.
MediaInfo
Код:
Complete name               : Bandits (2001) [2xUkr,Eng sub.Ukr,Multi] 720p [Hurtom&HDClub].mkv
Format                      : Matroska
Format version              : Version 4 / Version 2
File size                   : 6.30 GiB
Duration                    : 2h 3mn
Overall bit rate            : 7 326 Kbps
Movie name                  : Бандити / Bandits (2001) [2xUkr,Eng sub.Ukr,Multi] 720p [Hurtom&HDClub] by igor911
Encoded date                : UTC 2016-04-07 19:14:47
Writing application         : mkvmerge v9.0.1 ('Obstacles') 64bit
Writing library             : libebml v1.3.3 + libmatroska v1.4.4
Cover                       : Yes
Attachments                 : cover.jpg

Video
ID                          : 1
Format                      : AVC
Format/Info                 : Advanced Video Codec
Format profile              : [email protected]
Format settings, CABAC      : Yes
Format settings, ReFrames   : 11 frames
Codec ID                    : V_MPEG4/ISO/AVC
Duration                    : 2h 3mn
Bit rate                    : 5 236 Kbps
Width                       : 1 280 pixels
Height                      : 548 pixels
Display aspect ratio        : 2.35:1
Frame rate mode             : Constant
Frame rate                  : 23.976 (24000/1001) fps
Color space                 : YUV
Chroma subsampling          : 4:2:0
Bit depth                   : 8 bits
Scan type                   : Progressive
Bits/(Pixel*Frame)          : 0.311
Stream size                 : 4.50 GiB (71%)
Title                       : Бандити / Bandits (2001) 720p [EbP]
Writing library             : core 148 r2665 a01e339
Encoding settings           : cabac=1 / ref=11 / deblock=1:-3:-3 / analyse=0x3:0x133 / me=umh / subme=10 / psy=1 / psy_rd=1.05:0.00 / mixed_ref=1 / me_range=16 / chroma_me=1 / trellis=2 / 8x8dct=1 / cqm=0 / deadzone=21,11 / fast_pskip=0 / chroma_qp_offset=-2 / threads=12 / lookahead_threads=2 / sliced_threads=0 / nr=0 / decimate=0 / interlaced=0 / bluray_compat=0 / constrained_intra=0 / bframes=9 / b_pyramid=2 / b_adapt=2 / b_bias=0 / direct=3 / weightb=1 / open_gop=0 / weightp=2 / keyint=250 / keyint_min=23 / scenecut=40 / intra_refresh=0 / rc=crf / mbtree=0 / crf=17.2 / qcomp=0.60 / qpmin=0 / qpmax=69 / qpstep=4 / ip_ratio=1.40 / pb_ratio=1.30 / aq=3:0.70
Language                    : English
Default                     : Yes
Forced                      : No

Audio #1
ID                          : 2
Format                      : AC-3
Format/Info                 : Audio Coding 3
Mode extension              : CM (complete main)
Format settings, Endianness : Big
Codec ID                    : A_AC3
Duration                    : 2h 3mn
Bit rate mode               : Constant
Bit rate                    : 192 Kbps
Channel(s)                  : 2 channels
Channel positions           : Front: L R
Sampling rate               : 48.0 KHz
Frame rate                  : 31.250 fps (1536 spf)
Compression mode            : Lossy
Stream size                 : 169 MiB (3%)
Title                       : MVO [1+1] 2.0 192 kbps [Hurtom-igor911,ratbol]
Language                    : Ukrainian
Default                     : Yes
Forced                      : No

Audio #2
ID                          : 3
Format                      : AC-3
Format/Info                 : Audio Coding 3
Mode extension              : CM (complete main)
Format settings, Endianness : Big
Codec ID                    : A_AC3
Duration                    : 2h 3mn
Bit rate mode               : Constant
Bit rate                    : 384 Kbps
Channel(s)                  : 6 channels
Channel positions           : Front: L C R, Side: L R, LFE
Sampling rate               : 48.0 KHz
Frame rate                  : 31.250 fps (1536 spf)
Compression mode            : Lossy
Stream size                 : 338 MiB (5%)
Title                       : MVO [2+2] 5.1 384 kbps [Hurtom-Lan,karvai0]
Language                    : Ukrainian
Default                     : No
Forced                      : No

Audio #3
ID                          : 4
Format                      :
Format/Info                 : Digital Theater Systems
Mode                        : 16
Format settings, Endianness : Big
Codec ID                    : A_DTS
Duration                    : 2h 3mn
Bit rate mode               : Constant
Bit rate                    : 1 509 Kbps
Channel(s)                  : 6 channels
Channel positions           : Front: L C R, Side: L R, LFE
Sampling rate               : 48.0 KHz
Frame rate                  : 93.750 fps (512 spf)
Bit depth                   : 24 bits
Compression mode            : Lossy
Stream size                 : 1.30 GiB (21%)
Title                       : Original, 5.1 1509 kbps
Language                    : English
Default                     : No
Forced                      : No

Text #1
ID                          : 5
Format                      : UTF-8
Codec ID                    : S_TEXT/UTF8
Codec ID/Info               : UTF-8 Plain Text
Duration                    : 11mn 7s
Bit rate                    : 29 bps
Count of elements           : 34
Stream size                 : 2.42 KiB (0%)
Title                       : Ukr Forced
Language                    : Ukrainian
Default                     : Yes
Forced                      : Yes

Text #2
ID                          : 6
Format                      : UTF-8
Codec ID                    : S_TEXT/UTF8
Codec ID/Info               : UTF-8 Plain Text
Duration                    : 2h 0mn
Bit rate                    : 100 bps
Count of elements           : 1485
Stream size                 : 89.0 KiB (0%)
Title                       : Ukr full [igor911 edited]
Language                    : Ukrainian
Default                     : No
Forced                      : No

Text #3
ID                          : 7
Format                      : UTF-8
Codec ID                    : S_TEXT/UTF8
Codec ID/Info               : UTF-8 Plain Text
Duration                    : 2h 0mn
Bit rate                    : 73 bps
Count of elements           : 2401
Stream size                 : 64.5 KiB (0%)
Title                       : Eng full
Language                    : English
Default                     : No
Forced                      : No

Text #4
ID                          : 8
Format                      : UTF-8
Codec ID                    : S_TEXT/UTF8
Codec ID/Info               : UTF-8 Plain Text
Duration                    : 2h 2mn
Bit rate                    : 77 bps
Count of elements           : 2702
Stream size                 : 69.1 KiB (0%)
Title                       : Eng SDH
Language                    : English
Default                     : No
Forced                      : No

Text #5
ID                          : 9
Format                      : UTF-8
Codec ID                    : S_TEXT/UTF8
Codec ID/Info               : UTF-8 Plain Text
Duration                    : 2h 2mn
Bit rate                    : 77 bps
Count of elements           : 1617
Stream size                 : 69.4 KiB (0%)
Title                       : Eng lyrics
Language                    : English
Default                     : No
Forced                      : No

Text #6
ID                          : 10
Format                      : UTF-8
Codec ID                    : S_TEXT/UTF8
Codec ID/Info               : UTF-8 Plain Text
Duration                    : 2h 2mn
Bit rate                    : 80 bps
Count of elements           : 1659
Stream size                 : 72.4 KiB (0%)
Title                       : Eng lyrics-SDH
Language                    : English
Default                     : No
Forced                      : No

Text #7
ID                          : 11
Format                      : UTF-8
Codec ID                    : S_TEXT/UTF8
Codec ID/Info               : UTF-8 Plain Text
Duration                    : 1h 57mn
Bit rate                    : 55 bps
Count of elements           : 1170
Stream size                 : 47.6 KiB (0%)
Title                       : Cze
Language                    : Czech
Default                     : No
Forced                      : No

Text #8
ID                          : 12
Format                      : UTF-8
Codec ID                    : S_TEXT/UTF8
Codec ID/Info               : UTF-8 Plain Text
Duration                    : 2h 0mn
Bit rate                    : 49 bps
Count of elements           : 1177
Stream size                 : 44.0 KiB (0%)
Title                       : Dut
Language                    : Dutch
Default                     : No
Forced                      : No

Text #9
ID                          : 13
Format                      : UTF-8
Codec ID                    : S_TEXT/UTF8
Codec ID/Info               : UTF-8 Plain Text
Duration                    : 2h 0mn
Bit rate                    : 79 bps
Count of elements           : 2421
Stream size                 : 69.9 KiB (0%)
Title                       : Fre
Language                    : French
Default                     : No
Forced                      : No

Text #10
ID                          : 14
Format                      : UTF-8
Codec ID                    : S_TEXT/UTF8
Codec ID/Info               : UTF-8 Plain Text
Duration                    : 2h 0mn
Bit rate                    : 68 bps
Count of elements           : 2489
Stream size                 : 60.3 KiB (0%)
Title                       : Por
Language                    : Portuguese
Default                     : No
Forced                      : No

Text #11
ID                          : 15
Format                      : UTF-8
Codec ID                    : S_TEXT/UTF8
Codec ID/Info               : UTF-8 Plain Text
Duration                    : 2h 0mn
Bit rate                    : 72 bps
Count of elements           : 2048
Stream size                 : 64.4 KiB (0%)
Title                       : Spa
Language                    : Spanish
Default                     : No
Forced                      : No

Text #12
ID                          : 16
Format                      : UTF-8
Codec ID                    : S_TEXT/UTF8
Codec ID/Info               : UTF-8 Plain Text
Duration                    : 2h 0mn
Bit rate                    : 85 bps
Count of elements           : 2149
Stream size                 : 75.8 KiB (0%)
Title                       : Vie
Language                    : Vietnamese
Default                     : No
Forced                      : No

Menu
00:00:00.000                : en:Main Title/The Story
00:04:20.051                : en:"Anger Management"
00:06:41.025                : en:The Grear Escape
00:11:41.700                : en:Unplanned Robbery
00:15:54.036                : en:Teenage Hosts
00:18:23.018                : en:Dreaming of Mexico
00:21:21.622                : en:Would-be Hero
00:23:06.968                : en:"The Front Man"
00:26:18.493                : en:"Sleepover Bandits"
00:30:01.424                : en:"Make It Clear"
00:33:35.179                : en:Three-way Split
00:35:11.234                : en:Mad Housewife
00:38:19.130                : en:Hit & Run
00:39:32.133                : en:Desperate & Fragile
00:41:33.121                : en:Girl Trouble
00:46:44.432                : en:"So...You Rob Banks?"
00:50:08.219                : en:Poetry in Motion
00:54:41.486                : en:"Emotional Stress"
00:59:27.605                : en:Victim or Criminal?
01:03:48.324                : en:What a Wreck!
01:10:00.529                : en:Talking About Love
01:13:27.653                : en:Neurotic Bonding
01:17:32.481                : en:A Confusing Choice
01:22:26.941                : en:Unimpassioned Plea
01:23:47.772                : en:Finding a New Home
01:28:01.818                : en:A Stupid Stunt
01:36:37.822                : en:Three's a Crowd
01:46:16.900                : en:"One More Big Score"
01:48:59.495                : en:Coming Forth
01:51:24.594                : en:Bloody Standoff
01:54:35.827                : en:A Fiery Finale
01:57:12.233                : en:Ending in Paradise
Скріншоти
Джерело: &
українські доріжки - 1+1: igor911 - зведення, ratbol - запис з ТБ; 2+2: Lan - зведення, igor911 - синхронізація під blu-ray, karvai0 - запис з ТБ; українські субтитри - автор машинного перекладу з російської невідомий (взято з hdclub'у), igor911 - редагування та таймінг, українізований постер - Zetonik-z; фільмографії акторів та інформація про озвучення - Віктор (всі - Гуртом).

Особиста оцінка: 8 - мені сподобалося


Срібний реліз (на рейтинг впливає 50% завантаженого)
 Трекер:    Зареєстрований   

Завантажити / скачати фільм українською



відео для новачків



 Зареєстрований:   2016-04-08 15:45
 Розмір:   6.3 GB 
 Оцінка фільму:   1/10 (Голосів: 10)
   
Інші релізи
   Бандити / Bandits (2001) 2xUkr/Eng | Sub Ukr/Eng igor911  6 / 0   2.35 GB   2016-04-08 16:52 
   Бандити / Bandits (2001) AVC Jatx_11  1 / 0   2.29 GB   2011-09-22 20:56 
bot 
робот


З нами з: 30.09.07
Востаннє: 26.05.05
Повідомлень: 15966

2016-04-08 15:45  
Тему перенесено з Анонси релізів до форуму Фільми в HD


igor911

Ваш часовий пояс: GMT + 2 Години

Нова тема   Відповісти