Завантажити та скачати торренти українською


Смерть у мережі / The Den (2013) 720p-mini Ukr/Eng

Нові коментарі

Нова тема   Відповісти
Автор Повідомлення
krigg070 
Відео Гуртом - фільмокрай
Відео Гуртом - фільмокрай


З нами з: 29.10.14
Востаннє: 05.12.16
Повідомлень: 348

2016-04-05 19:13  
Смерть у мережі / The Den (2013) 720p-mini Ukr/Eng


Жанр: жахи, містика, трилер
Країна: США



Кінокомпанія: Cliffbrook Films, Onset Films
Режисер: Захарі Доног'ю
Актори: Мелані Папаліа, Девід Шлачтенгауфен, Адам Шапіро, Анна Марґарет Голліман, Мет Ріді, Саїда Аріка Екулона, Ентоні Дженнінґс, Вікторія Ганлін, Анушка Рані, Лілі Голлеман

Сюжет:
Молода жінка вивчає звички користувачів чату з використанням веб-камери і мимоволі стає свідком жорстокого вбивства...

Тривалість: 01:16:46
Якість:
Відео:
кодек:
розмір кадру: 1 280 х 720
бітрейт: 2 750 кб/с

Аудіо # 1:
мова: українська
переклад: багатоголосий закадровий
кодек: 2.0
бітрейт: 192 кб/с

Аудіо # 2:
мова: англійська
переклад: оригінал
кодек: 5.1
бітрейт: 384 кб/с
Скріншоти
MediaInfo
Код:
General
Unique ID                      : 231077143875891203454810026484183775254 (0xADD7D6CE4D17CB168BCDF7D627A6B816)
Complete name                  : C:\Users\krigg\Videos\The.Den.2013..720p-mini.ukr.eng.mkv
Format                         : Matroska
Format version                 : Version 2
File size                      : 1.78 GiB
Duration                       : 1h 16mn
Overall bit rate               : 3 328 Kbps
Movie name                     : Смерть у мережі (2013) 720p-mini Ukr/Eng
Encoded date                   : UTC 2016-04-05 17:03:07
Writing application            : mkvmerge v3.3.0 ('Language') built on Mar 24 2010 14:59:24
Writing library                : libebml v0.8.0 + libmatroska v0.9.0

Video
ID                             : 1
Format                         : AVC
Format/Info                    : Advanced Video Codec
Format profile                 : [email protected]
Format settings, CABAC         : Yes
Format settings, ReFrames      : 5 frames
Codec ID                       : V_MPEG4/ISO/AVC
Duration                       : 1h 16mn
Bit rate                       : 2 750 Kbps
Width                          : 1 280 pixels
Height                         : 720 pixels
Display aspect ratio           : 16:9
Frame rate mode                : Constant
Frame rate                     : 23.976 (24000/1001) fps
Color space                    : YUV
Chroma subsampling             : 4:2:0
Bit depth                      : 8 bits
Scan type                      : Progressive
Bits/(Pixel*Frame)             : 0.124
Stream size                    : 1.44 GiB (81%)
Writing library                : core 138 r2358 9e941d1
Encoding settings              : cabac=1 / ref=5 / deblock=1:-1:-1 / analyse=0x3:0x113 / me=umh / subme=6 / psy=1 / psy_rd=1.00:0.00 / mixed_ref=1 / me_range=20 / chroma_me=1 / trellis=1 / 8x8dct=1 / cqm=2 / deadzone=21,11 / fast_pskip=0 / chroma_qp_offset=-2 / threads=6 / lookahead_threads=1 / sliced_threads=0 / nr=0 / decimate=0 / interlaced=0 / bluray_compat=0 / constrained_intra=0 / bframes=5 / b_pyramid=2 / b_adapt=2 / b_bias=0 / direct=3 / weightb=1 / open_gop=0 / weightp=2 / keyint=240 / keyint_min=23 / scenecut=40 / intra_refresh=0 / rc_lookahead=50 / rc=2pass / mbtree=1 / bitrate=2750 / ratetol=1.0 / qcomp=0.60 / qpmin=1 / qpmax=63 / qpstep=4 / cplxblur=20.0 / qblur=0.5 / vbv_maxrate=62500 / vbv_bufsize=78125 / nal_hrd=none / ip_ratio=1.40 / aq=1:1.00
Language                       : English
Default                        : No
Forced                         : No

Audio #1
ID                             : 2
Format                         : AC-3
Format/Info                    : Audio Coding 3
Mode extension                 : CM (complete main)
Format settings, Endianness    : Big
Codec ID                       : A_AC3
Duration                       : 1h 16mn
Bit rate mode                  : Constant
Bit rate                       : 192 Kbps
Channel(s)                     : 2 channels
Channel positions              : Front: L R
Sampling rate                  : 48.0 KHz
Frame rate                     : 31.250 fps (1536 spf)
Compression mode               : Lossy
Stream size                    : 105 MiB (6%)
Title                          : НЛО.TV
Language                       : Ukrainian
Default                        : Yes
Forced                         : No

Audio #2
ID                             : 3
Format                         : AC-3
Format/Info                    : Audio Coding 3
Mode extension                 : CM (complete main)
Format settings, Endianness    : Big
Codec ID                       : A_AC3
Duration                       : 1h 16mn
Bit rate mode                  : Constant
Bit rate                       : 384 Kbps
Channel(s)                     : 6 channels
Channel positions              : Front: L C R, Side: L R, LFE
Sampling rate                  : 48.0 KHz
Frame rate                     : 31.250 fps (1536 spf)
Compression mode               : Lossy
Stream size                    : 211 MiB (12%)
Title                          : Original
Language                       : English
Default                        : No
Forced                         : No
Джерело: &
Особиста оцінка: 8 - мені сподобалося
Цитата:
Подяки:
Запис з ТБ: POMEO
Зведення: ninenine


 Трекер:    Зареєстрований   

Завантажити / скачати фільм українською



відео для новачків



 Зареєстрований:   2016-04-05 19:13
 Розмір:   1.78 GB 
 Оцінка фільму:   8.1/10 (Голосів: 7)
   
Інші релізи
   Смерть у мережі / The Den (2013) Ukr/Eng ninenine  4 / 0   1.32 GB   2016-04-05 18:09 
Siegfried 
Свій


З нами з: 01.11.11
Востаннє: 04.12.16
Повідомлень: 84

2016-05-25 12:37  
Слабенько. Перша третина - іще більш-менш, а далі стає нуднувато.

Не вартий уваги.

На 3 з 10.

Ваш часовий пояс: GMT + 2 Години

Нова тема   Відповісти