Завантажити та скачати торренти українською


Батарейки до комплекту не входять / *batteries not included (1987) 720p Ukr/Eng | Sub Eng

Нові коментарі

Нова тема   Відповісти
Автор Повідомлення
Anonymous 







2016-04-03 01:46  
Батарейки до комплекту не входять / *batteries not included (1987) 720p Ukr/Eng | Sub Eng

Батарейки до комплекту не входять / *batteries not included (1987) 720p Ukr/Eng | Sub Eng

Альтернативний постер


повнорозмірні зображення відкриються по кліку (з натиснутим CTRL чи кліком середньою кнопкою мишки - у новій вкладці)


Жанр: сімейний, фентезі, фантастика, драма, комедія
Країна: США, Канада



Кіностудія / кінокомпанія: Universal Pictures, Amblin Entertainment

Продюсер: Стівен Спілберг / Steven Spielberg
Режисер: Метт'ю Роббінс / Matthew Robbins
Актори: Г'юм Кронін / Hume Cronyn, Джессіка Тенді / Jessica Tandy, Френк МакРей / Frank McRae, Елізабет Пенья / Elizabeth Peña, Майкл Карміне / Michael Carmine, Денніс Буцикарис / Dennis Boutsikaris та інші

Сюжет:
У цій милій фантастичній комедії розповідається дивна історія, яка сталася з жителями нью-йоркського кварталу. Будинок, в якому живуть наші герої - літня сімейна пара Райлі, колишній боксер Гаррі, молода вагітна пуерторіканка Маріса та художник Мейсон, заважає планам великого забудовника по зведенню хмарочосів-близнюків, і той, прямо як у нас в Україні, наймає тітушок примусити мешканців будинку виселитись. Жменька домочадців відчайдушно бореться за порятунок рідного будинку, але сили нерівні і бідолахам залишається сподіватися лише на диво. І воно трапляється: допомога приходить від братів по розуму. Одного разу вночі квартиру Райлі відвідують несподівані гості - крихітні створіння, схожі на літаючі тарілки ...
Цікаві факти про фільм

- В епізоді, де Карлос приходить в офіс забудовника Лейсі, вони розглядають масштабний макет майбутніх хмарочосів, між якими стоїть і маленька моделька "проблемного" будинку.

- актори Джесіка Тенді та Джессика Тенди та Г'юм Кронін, що зіграли Фей та Френка Райлі, насправді є чоловіком та дружиною.

Рейтинг MPAA: PG - рекомендується присутність батьків
Вікова категорія: 6+

Тривалість: 01:46:29
Якість: 720p [ріп від CtrlHD]
Відео:
кодек:
розмір кадру: 1280x692
бітрейт: 9074 Кбіт/с [crf=18]

Аудіо # 1:
мова: українська
переклад: двоголосий закадровий | Студія 1+1
ролі озвучили: Олесь Гімбаржевський і Олена Узлюк?
кодек: 2.0
бітрейт: 128 Кбіт/с

Аудіо # 2:
мова: англійська
переклад: оригінал
кодек: 5.1
бітрейт: 768 Кбіт/с

Субтитри # 1-2:
мова: англійська (повні, SDH)
тип: програмні (м'які)
формат: *.srt

Збережено оригінальні розділи, як на Blu-ray.
MediaInfo
Код:
Complete name               : batteries not included (1987) [Ukr,Eng sub.Eng] 720p [Hurtom&HDClub].mkv
Format                      : Matroska
Format version              : Version 4 / Version 2
File size                   : 7.42 GiB
Duration                    : 1h 46mn
Overall bit rate            : 9 974 Kbps
Movie name                  : Батарейки до комплекту не входять / *batteries not included (1987) [Ukr,Eng sub.Eng] 720p [Hurtom&HDClub] by igor911
Encoded date                : UTC 2016-04-02 23:52:15
Writing application         : mkvmerge v9.0.1 ('Obstacles') 64bit
Writing library             : libebml v1.3.3 + libmatroska v1.4.4
Attachements                : cover.jpg

Video
ID                          : 1
Format                      : AVC
Format/Info                 : Advanced Video Codec
Format profile              : [email protected]
Format settings, CABAC      : Yes
Format settings, ReFrames   : 9 frames
Codec ID                    : V_MPEG4/ISO/AVC
Duration                    : 1h 46mn
Bit rate                    : 9 074 Kbps
Width                       : 1 280 pixels
Height                      : 692 pixels
Display aspect ratio        : 1.85:1
Frame rate mode             : Constant
Frame rate                  : 23.976 (24000/1001) fps
Color space                 : YUV
Chroma subsampling          : 4:2:0
Bit depth                   : 8 bits
Scan type                   : Progressive
Bits/(Pixel*Frame)          : 0.427
Stream size                 : 6.75 GiB (91%)
Title                       : Батарейки до комплекту не входять / *batteries not included (1987) 720p [CtrlHD]
Writing library             : core 148 r2665kMod a01e339
Encoding settings           : cabac=1 / ref=9 / deblock=1:-3:-3 / analyse=0x3:0x133 / me=umh / subme=10 / psy=1 / fade_compensate=0.00 / psy_rd=1.05:0.00 / mixed_ref=1 / me_range=32 / chroma_me=1 / trellis=2 / 8x8dct=1 / cqm=0 / deadzone=21,11 / fast_pskip=1 / chroma_qp_offset=-2 / threads=6 / lookahead_threads=1 / sliced_threads=0 / nr=0 / decimate=0 / interlaced=0 / bluray_compat=0 / constrained_intra=0 / fgo=0 / bframes=8 / b_pyramid=2 / b_adapt=2 / b_bias=0 / direct=3 / weightb=1 / open_gop=0 / weightp=2 / keyint=250 / keyint_min=23 / scenecut=40 / intra_refresh=0 / rc_lookahead=60 / rc=crf / mbtree=0 / crf=18.0000 / qcomp=0.65 / qpmin=0 / qpmax=69 / qpstep=4 / vbv_maxrate=62500 / vbv_bufsize=78125 / crf_max=0.0 / nal_hrd=none / filler=0 / ip_ratio=1.30 / pb_ratio=1.20 / aq=3:0.80
Language                    : English
Default                     : Yes
Forced                      : No

Audio #1
ID                          : 2
Format                      : AC-3
Format/Info                 : Audio Coding 3
Mode extension              : CM (complete main)
Format settings, Endianness : Big
Codec ID                    : A_AC3
Duration                    : 1h 46mn
Bit rate mode               : Constant
Bit rate                    : 128 Kbps
Channel(s)                  : 2 channels
Channel positions           : Front: L R
Sampling rate               : 48.0 KHz
Frame rate                  : 31.250 fps (1536 spf)
Compression mode            : Lossy
Stream size                 : 97.5 MiB (1%)
Title                       : DVO [1+1,ICTV] 2.0 192 kbps [Hurtom-robotron005,MAKAPOHHIK]
Language                    : Ukrainian
Default                     : Yes
Forced                      : No

Audio #2
ID                          : 3
Format                      :
Format/Info                 : Digital Theater Systems
Mode                        : 16
Format settings, Endianness : Big
Codec ID                    : A_DTS
Duration                    : 1h 46mn
Bit rate mode               : Constant
Bit rate                    : 768 Kbps
Channel(s)                  : 6 channels
Channel positions           : Front: L C R, Side: L R, LFE
Sampling rate               : 48.0 KHz
Frame rate                  : 93.750 fps (512 spf)
Bit depth                   : 24 bits
Compression mode            : Lossy
Stream size                 : 585 MiB (8%)
Title                       : Original, 5.1 768 kbps
Language                    : English
Default                     : No
Forced                      : No

Text #1
ID                          : 4
Format                      : UTF-8
Codec ID                    : S_TEXT/UTF8
Codec ID/Info               : UTF-8 Plain Text
Duration                    : 1h 36mn
Bit rate                    : 35 bps
Count of elements           : 953
Stream size                 : 24.9 KiB (0%)
Title                       : Eng full
Language                    : English
Default                     : No
Forced                      : No

Text #2
ID                          : 5
Format                      : UTF-8
Codec ID                    : S_TEXT/UTF8
Codec ID/Info               : UTF-8 Plain Text
Duration                    : 1h 41mn
Bit rate                    : 36 bps
Count of elements           : 1027
Stream size                 : 26.9 KiB (0%)
Title                       : English SDH
Language                    : English
Default                     : No
Forced                      : No

Menu
00:00:00.000                : en:00:00:00.000
00:03:00.680                : en:00:03:00.680
00:12:42.220                : en:00:12:42.220
00:18:15.803                : en:00:18:15.803
00:21:44.887                : en:00:21:44.887
00:29:12.751                : en:00:29:12.751
00:38:40.944                : en:00:38:40.944
00:51:20.160                : en:00:51:20.160
00:57:14.056                : en:00:57:14.056
01:03:27.679                : en:01:03:27.679
01:06:35.408                : en:01:06:35.408
01:09:55.608                : en:01:09:55.608
01:15:29.775                : en:01:15:29.775
01:20:13.434                : en:01:20:13.434
01:26:14.378                : en:01:26:14.378
01:27:53.351                : en:01:27:53.351
01:34:56.482                : en:01:34:56.482
01:41:33.879                : en:01:41:33.879


Джерела та подяки: &
українська доріжка - robotron005 - зведення, MAKAPOHHIK - запис з ТБ.





ЗАЛИШАЙТЕСЬ ЯКОМОГА ДОВШЕ НА РОЗДАЧІ!
СКАЧАВ САМ - ДАЙ СКАЧАТИ ІНШИМ


Срібний реліз (на рейтинг впливає 50% завантаженого)
 Трекер:    Зареєстрований   

Завантажити / скачати фільм українською



відео для новачків



 Зареєстрований:   2016-04-03 16:10
 Розмір:   7.42 GB 
 Оцінка фільму:   5.7/10 (Голосів: 21)
   
EvGaS 
Відео Гуртом - підтримка та поширення
Відео Гуртом - підтримка та поширення


З нами з: 27.02.12
Востаннє: 04.12.16
Повідомлень: 2101

2016-04-03 06:08  
igor911 написано:
Батарейки до комплекту не входять

Старе добре кіно. Давно в колекції. Сьогодні виглядає трошки наївним, та й любителям сучасних екшенів та наворочених комп. ефектами зображень навряд сподобається. А мені - норм фантастична казка.

shanjin 
VIP


З нами з: 17.04.13
Востаннє: 04.12.16
Повідомлень: 328

2016-04-03 07:13  
Дякую треба,якось нарешті спробувать подивитись спочатку,бо жорстока доля не дала це зрбитиHappy
380966057693 
Свій


З нами з: 15.01.14
Востаннє: 03.12.16
Повідомлень: 92

2016-04-03 17:24  
Пригадую в дитинства бачив цей фільм на Новому каналі, тоді він мені сподобався. Щож по можливості перегляну щераз
Ваш часовий пояс: GMT + 2 Години

Нова тема   Відповісти