Завантажити та скачати торренти українською


Плетений чоловік (Плетена людина) [Розширена версія] / The Wicker Man [Unrated] (2006) 720p 3хUkr/Eng | Sub Eng

Нові коментарі

Нова тема   Відповісти
Автор Повідомлення
Anonymous 







2016-04-02 13:06  
Плетений чоловік (Плетена людина) [Розширена версія] / The Wicker Man [Unrated] (2006) 720p 3хUkr/Eng | Sub Eng

Плетений чоловік (Плетена людина) [Розширена версія] / The Wicker Man [Unrated] (2006) 720p 3хUkr/Eng | Sub Eng

Українізований та альтернативні постери










повнорозмірні зображення відкриються по кліку (з натиснутим CTRL чи кліком середньою кнопкою мишки - у новій вкладці)


Жанр: жахи, містика, трилер, детектив
Країна: США, Німеччина, Канада



Кінокомпанія: Warner Bros., Alcon Entertainment, Millennium Films
Режисер: Ніл ЛаБут
Актори: Ніколас Кейдж / Nicolas Cage, Еллен Берстін / Ellen Burstyn, Кейт Біган / Kate Beahan, Френсіс Конрой / Frances Conroy, Моллі Паркер / Molly Parker, Лілі Собеські / Leelee Sobieski, Дайан Делано / Diane Delano, Майкл Вайзмен / Michael Wiseman, Еріка-Шейв Гейр / Erika-Shaye Gair, Кріста Кемпбелл / Christa Campbell та інші

Сюжет:
Колишній поліцейський Едвард Маюліс (Ніколас Кейдж) отримує листа від своєї давньої подруги, в якому вона просить знайти її зниклу дочку. Розслідуючи зникнення маленької дівчинки, Едвард потрапляє на дивний острів з дуже дивними людьми і виявляє, що зникнення дівчинки пов'язане з таємним товариством. Незрозумілі символи, моторошні обряди - у всьому цьому доведеться розібратися поліцейському, щоб дізнатися страшну таємницю...

Рімейк однойменного британського класичного фільму 1973 року


Рейтинг MPAA: Unrated (для театральної версії був PG-13)
Вікова категорія: 15+
Тривалість: 1:41:55
Різниця між Театральною та Unrated версіями
Обережно - спойлери !!!, 16+
Якість: 720p
Відео:
кодек:
розмір кадру: 1280 х 534
бітрейт: 5500 кбіт/с

Аудіо # 1:
мова: українська
переклад: професійний дубльований | студія "Пілот"
ролі дублювали: Ніколас Кейдж — Андрій Самінін, Дмитро Завадський, Олена Узлюк?, Лариса Руснак та інші
кодек: 5.1
бітрейт: 448 кбіт/с

Аудіо # 2:
мова: українська
переклад: багатоголосий закадровий
кодек: 2.0
бітрейт: 192 кбіт/с

Аудіо # 3:
мова: українська
переклад: багатоголосий закадровий
ролі озвучили: Ніколас Кейдж — Олег Стальчук, Ярослав Чорненький і два жіночих голоси
кодек: 2.0
бітрейт: 192 кбіт/с

Субтитри:
мова: українська (форсовані, на епізод розширеної версії без озвучення, діалоги з 01:31:03 по 01:33:00)
тип: програмні (м'які)
формат: *.srt

Субтитри:
мова: англійська
тип: програмні (м'які)
формат: *.srt

Збережено оригінальні розділи, як на Blu-ray.
MediaInfo
Код:
Complete name               : The Wicker Man [Unrated] (2006) [3xUkr,Eng sub.Eng] 720p [Hurtom&HDClub].mkv
Format                      : Matroska
Format version              : Version 4 / Version 2
File size                   : 4.96 GiB
Duration                    : 1h 41mn
Overall bit rate            : 6 970 Kbps
Movie name                  : Плетений чоловік / Плетена людина / The Wicker Man [Unrated] (2006) [3xUkr,Eng sub.Eng] 720p [Hurtom&HDClub] by igor911
Encoded date                : UTC 2016-04-02 13:46:40
Writing application         : mkvmerge v9.0.1 ('Obstacles') 64bit
Writing library             : libebml v1.3.3 + libmatroska v1.4.4
Attachements                : cover.jpg
DURATION                    : 01:40:13.215000000
NUMBER_OF_FRAMES            : 954
NUMBER_OF_BYTES             : 31179
_STATISTICS_WRITING_APP     : mkvmerge v9.0.1 ('Obstacles') 64bit
_STATISTICS_WRITING_DATE_UT : 2016-04-02 13:46:40
_STATISTICS_TAGS            : BPS DURATION NUMBER_OF_FRAMES NUMBER_OF_BYTES

Video
ID                          : 1
Format                      : AVC
Format/Info                 : Advanced Video Codec
Format profile              : [email protected]
Format settings, CABAC      : Yes
Format settings, ReFrames   : 12 frames
Codec ID                    : V_MPEG4/ISO/AVC
Duration                    : 1h 41mn
Bit rate                    : 5 500 Kbps
Width                       : 1 280 pixels
Height                      : 534 pixels
Display aspect ratio        : 2.40:1
Frame rate mode             : Constant
Frame rate                  : 23.976 fps
Color space                 : YUV
Chroma subsampling          : 4:2:0
Bit depth                   : 8 bits
Scan type                   : Progressive
Bits/(Pixel*Frame)          : 0.336
Stream size                 : 3.82 GiB (77%)
Title                       : Плетений чоловік / Плетена людина / The Wicker Man [Unrated] (2006) 720p [HDClub-DoroshDan]
Writing library             : core 146 r2538bm 121396c
Encoding settings           : cabac=1 / ref=12 / deblock=1:-3:-3 / analyse=0x3:0x113 / me=umh / subme=10 / psy=1 / psy_rd=1.00:0.00 / mixed_ref=1 / me_range=64 / chroma_me=1 / trellis=2 / 8x8dct=1 / cqm=0 / deadzone=21,11 / fast_pskip=0 / chroma_qp_offset=-2 / threads=12 / lookahead_threads=3 / sliced_threads=0 / nr=0 / decimate=0 / interlaced=0 / bluray_compat=0 / constrained_intra=0 / bframes=12 / b_pyramid=2 / b_adapt=2 / b_bias=0 / direct=3 / weightb=1 / open_gop=0 / weightp=2 / keyint=250 / keyint_min=23 / scenecut=40 / intra_refresh=0 / rc_lookahead=80 / rc=2pass / mbtree=0 / bitrate=5500 / ratetol=1.0 / qcomp=0.60 / qpmin=0 / qpmax=69 / qpstep=4 / cplxblur=20.0 / qblur=0.5 / vbv_maxrate=62500 / vbv_bufsize=78125 / nal_hrd=none / filler=0 / ip_ratio=1.40 / pb_ratio=1.30 / aq=1:1.00
Language                    : English
Default                     : Yes
Forced                      : No

Audio #1
ID                          : 2
Format                      : AC-3
Format/Info                 : Audio Coding 3
Mode extension              : CM (complete main)
Format settings, Endianness : Big
Codec ID                    : A_AC3
Duration                    : 1h 41mn
Bit rate mode               : Constant
Bit rate                    : 448 Kbps
Channel(s)                  : 6 channels
Channel positions           : Front: L C R, Side: L R, LFE
Sampling rate               : 48.0 KHz
Compression mode            : Lossy
Stream size                 : 327 MiB (6%)
Title                       : Dub [Студія "Пілот" - DVD R5] 5.1 448 kbps
Language                    : Ukrainian
Default                     : Yes
Forced                      : No

Audio #2
ID                          : 3
Format                      : AC-3
Format/Info                 : Audio Coding 3
Mode extension              : CM (complete main)
Format settings, Endianness : Big
Codec ID                    : A_AC3
Duration                    : 1h 41mn
Bit rate mode               : Constant
Bit rate                    : 192 Kbps
Channel(s)                  : 2 channels
Channel positions           : Front: L R
Sampling rate               : 48.0 KHz
Compression mode            : Lossy
Stream size                 : 140 MiB (3%)
Title                       : MVO [2+2] 2.0 192 kbps [Hurtom-karvai0]
Language                    : Ukrainian
Default                     : No
Forced                      : No

Audio #3
ID                          : 4
Format                      : AC-3
Format/Info                 : Audio Coding 3
Mode extension              : CM (complete main)
Format settings, Endianness : Big
Codec ID                    : A_AC3
Duration                    : 1h 41mn
Bit rate mode               : Constant
Bit rate                    : 192 Kbps
Channel(s)                  : 2 channels
Channel positions           : Front: L R
Sampling rate               : 48.0 KHz
Compression mode            : Lossy
Stream size                 : 140 MiB (3%)
Title                       : MVO [NTN] 2.0 192 kbps [Hurtom-AlexTex]
Language                    : Ukrainian
Default                     : No
Forced                      : No

Audio #4
ID                          : 5
Format                      : AC-3
Format/Info                 : Audio Coding 3
Mode extension              : CM (complete main)
Format settings, Endianness : Big
Codec ID                    : A_AC3
Duration                    : 1h 41mn
Bit rate mode               : Constant
Bit rate                    : 640 Kbps
Channel(s)                  : 6 channels
Channel positions           : Front: L C R, Side: L R, LFE
Sampling rate               : 48.0 KHz
Compression mode            : Lossy
Stream size                 : 467 MiB (9%)
Title                       : Original, 5.1 640 kbps
Language                    : English
Default                     : No
Forced                      : No

Text #1
ID                          : 6
Format                      : UTF-8
Codec ID                    : S_TEXT/UTF8
Codec ID/Info               : UTF-8 Plain Text
Title                       : Ukr Forced [Electr0man]
Language                    : Ukrainian
Default                     : Yes
Forced                      : Yes

Text #2
ID                          : 7
Format                      : UTF-8
Codec ID                    : S_TEXT/UTF8
Codec ID/Info               : UTF-8 Plain Text
Title                       : Eng Full
Language                    : English
Default                     : No
Forced                      : No

Text #3
ID                          : 8
Format                      : UTF-8
Codec ID                    : S_TEXT/UTF8
Codec ID/Info               : UTF-8 Plain Text
Title                       : Eng SDH
Language                    : English
Default                     : No
Forced                      : No

Menu
00:00:00.000                : :Chapter 1
00:03:36.216                : :Chapter 2
00:05:43.343                : :Chapter 3
00:09:42.748                : :Chapter 4
00:13:01.113                : :Chapter 5
00:18:08.253                : :Chapter 6
00:21:32.791                : :Chapter 7
00:24:35.640                : :Chapter 8
00:30:45.343                : :Chapter 9
00:34:56.594                : :Chapter 10
00:39:16.354                : :Chapter 11
00:41:48.005                : :Chapter 12
00:46:18.442                : :Chapter 13
00:51:29.086                : :Chapter 14
00:57:28.945                : :Chapter 15
01:02:06.222                : :Chapter 16
01:05:15.077                : :Chapter 17
01:08:41.784                : :Chapter 18
01:13:34.576                : :Chapter 19
01:15:30.859                : :Chapter 20
01:21:06.027                : :Chapter 21
01:25:40.135                : :Chapter 22
01:30:36.764                : :Chapter 23
01:33:03.578                : :Chapter 24
01:37:17.832                : :Chapter 25
01:41:55.526                : :Chapter 26


Джерела та подяки: &
Подяки karvai0 за запис з 2+2, AlexTex за доріжку з НТН, Electr0man - за форсовані субтитри, mrdavis - за українізований постер; HDClub'у - за зведення під розширену версію.



ЗАЛИШАЙТЕСЬ ЯКОМОГА ДОВШЕ НА РОЗДАЧІ!
СКАЧАВ САМ - ДАЙ СКАЧАТИ ІНШИМ


 Трекер:    Зареєстрований   

Завантажити / скачати фільм українською



відео для новачків



 Зареєстрований:   2016-04-02 19:19
 Розмір:   4.96 GB 
 Оцінка фільму:   3.9/10 (Голосів: 17)
   
bot 
робот


З нами з: 30.09.07
Востаннє: 26.05.05
Повідомлень: 16044

2016-04-02 19:19  
Тему перенесено з Анонси релізів до форуму Фільми в HD


igor911

Wensun 
Частий відвідувач


З нами з: 20.01.09
Востаннє: 06.12.16
Повідомлень: 47

2016-04-23 16:45  
на таке дурне кіно, щей режисер зробив розширений реліз ?!?!..
Ваш часовий пояс: GMT + 2 Години

Нова тема   Відповісти