Завантажити та скачати торренти українською


Піски забуття / Sands of Oblivion (2007) 720p Ukr/Eng | Sub Ger

Нові коментарі

Нова тема   Відповісти
Автор Повідомлення
Anonymous 







2016-03-31 09:50  
Піски забуття / Sands of Oblivion (2007) 720p Ukr/Eng | Sub Ger

Піски забуття / Sands of Oblivion (2007) 720p Ukr/Eng | Sub Ger

Альтернативна обкладинка


повнорозмірні зображення відкриються по кліку (з натиснутим CTRL чи кліком середньою кнопкою мишки - у новій вкладці)


Жанр: пригодницький, комедія, драма
Країна: США



Кінокомпанія: Starz Productions
Режисер: Девід Флорес / David Flores
Актори: Морена Баккарін / Morena Baccarin, Адам Болдвін / Adam Baldwin, Віктор Вебстер / Victor Webster, Джордж Кеннеді / George Kennedy та інші

Сюжет:
Великий фараон розгнівав богів. У покарання вони наслали на Єгипетське царство демонів пустелі. Щоб захистити свого правителя і його народ від темних сил, жерці зробили таємний обряд. Принісши людську жертву й поховавши в пісках священний амулет, вони попросили захисту у Анубіса, бога загробного світу. Прийнявши дар, Анубіс утихомирив демонів пустелі, і в Єгипті запанував мир... Але через тисячу років археологи знайшли древній амулет. І, щоб повернути собі символ абсолютної влади над темними силами, Анубіс знову з'являється у світі людей...


Вікова категорія: 12+

Тривалість: 01:36:25
Якість: 720p (Власний ріп)
Відео:
кодек:
розмір кадру: 1280 х 720
бітрейт: 6562 кбіт/с [crf=17]

Аудіо # 1:
мова: українська
переклад: багатоголосий закадровий
кодек: 2.0
бітрейт: 192 кбіт/с

Аудіо # 2:
мова: англійська
переклад: оригінал
кодек: 5.1
бітрейт: 1509 кбіт/с

Субтитри # 1:
мова: німецька
тип: програмні (м'які)
формат: *.srt

Збережено оригінальні розділи, як на Blu-ray.
MediaInfo та log
Код:
Complete name               : Sands of Oblivion (2007) [Ukr,Eng sub.Ger] 720p [Hurtom].mkv
Format                      : Matroska
Format version              : Version 4 / Version 2
File size                   : 5.57 GiB
Duration                    : 1h 36mn
Overall bit rate            : 8 267 Kbps
Movie name                  : Піски забуття / Sands of Oblivion (2007) [Ukr,Eng sub.Ger] 720p [Hurtom-igor911]
Encoded date                : UTC 2016-03-31 08:41:48
Writing application         : mkvmerge v9.0.1 ('Obstacles') 64bit
Writing library             : libebml v1.3.3 + libmatroska v1.4.4
Attachements                : cover.jpg
DURATION                    : 01:34:03.448000000
NUMBER_OF_FRAMES            : 943
NUMBER_OF_BYTES             : 42932
_STATISTICS_WRITING_APP     : mkvmerge v9.0.1 ('Obstacles') 64bit
_STATISTICS_WRITING_DATE_UT : 2016-03-31 08:41:48
_STATISTICS_TAGS            : BPS DURATION NUMBER_OF_FRAMES NUMBER_OF_BYTES

Video
ID                          : 1
Format                      : AVC
Format/Info                 : Advanced Video Codec
Format profile              : [email protected]
Format settings, CABAC      : Yes
Format settings, ReFrames   : 9 frames
Codec ID                    : V_MPEG4/ISO/AVC
Duration                    : 1h 36mn
Bit rate                    : 6 401 Kbps
Width                       : 1 280 pixels
Height                      : 720 pixels
Display aspect ratio        : 16:9
Frame rate mode             : Constant
Frame rate                  : 23.976 fps
Color space                 : YUV
Chroma subsampling          : 4:2:0
Bit depth                   : 8 bits
Scan type                   : Progressive
Bits/(Pixel*Frame)          : 0.290
Stream size                 : 4.31 GiB (77%)
Title                       : Піски забуття / Sands of Oblivion (2007) 720p [Hurtom-igor911]
Writing library             : core 148 r2638 7599210
Encoding settings           : cabac=1 / ref=9 / deblock=1:-1:-1 / analyse=0x3:0x133 / me=umh / subme=11 / psy=1 / psy_rd=1.00:0.15 / mixed_ref=1 / me_range=32 / chroma_me=1 / trellis=2 / 8x8dct=1 / cqm=0 / deadzone=21,11 / fast_pskip=0 / chroma_qp_offset=-3 / threads=12 / lookahead_threads=3 / sliced_threads=0 / nr=0 / decimate=1 / interlaced=0 / bluray_compat=0 / constrained_intra=0 / bframes=12 / b_pyramid=2 / b_adapt=2 / b_bias=0 / direct=3 / weightb=1 / open_gop=0 / weightp=2 / keyint=240 / keyint_min=23 / scenecut=40 / intra_refresh=0 / rc_lookahead=60 / rc=crf / mbtree=1 / crf=17.0 / qcomp=0.60 / qpmin=0 / qpmax=69 / qpstep=4 / vbv_maxrate=62500 / vbv_bufsize=78125 / crf_max=0.0 / nal_hrd=none / filler=0 / ip_ratio=1.40 / aq=1:1.00 / zones=135765,138719,q=40
Language                    : English
Default                     : Yes
Forced                      : No

Audio #1
ID                          : 2
Format                      : AC-3
Format/Info                 : Audio Coding 3
Mode extension              : CM (complete main)
Format settings, Endianness : Big
Codec ID                    : A_AC3
Duration                    : 1h 36mn
Bit rate mode               : Constant
Bit rate                    : 192 Kbps
Channel(s)                  : 2 channels
Channel positions           : Front: L R
Sampling rate               : 48.0 KHz
Compression mode            : Lossy
Stream size                 : 132 MiB (2%)
Title                       : MVO [NLO] 2.0 192 kbps [Hurtom-НТН]
Language                    : Ukrainian
Default                     : Yes
Forced                      : No

Audio #2
ID                          : 3
Format                      :
Format/Info                 : Digital Theater Systems
Mode                        : 16
Format settings, Endianness : Big
Codec ID                    : A_DTS
Duration                    : 1h 36mn
Bit rate mode               : Constant
Bit rate                    : 1 509 Kbps
Channel(s)                  : 6 channels
Channel positions           : Front: L C R, Side: L R, LFE
Sampling rate               : 48.0 KHz
Bit depth                   : 16 bits
Compression mode            : Lossy
Stream size                 : 1.02 GiB (18%)
Title                       : Original 5.1 1509 kbps
Language                    : English
Default                     : No
Forced                      : No

Text
ID                          : 4
Format                      : UTF-8
Codec ID                    : S_TEXT/UTF8
Codec ID/Info               : UTF-8 Plain Text
Language                    : German
Default                     : No
Forced                      : No

Menu
00:00:00.000                : en:PROLOGUE
00:05:12.000                : en:EXCAVATIONS
00:18:05.000                : en:A NEW JOB
00:24:07.000                : en:DEATH SCENES
00:32:14.000                : en:THE CHAMBER
00:39:30.000                : en:THE SPIRIT RACHENDE
00:47:27.000                : en:MASONIC
00:59:27.000                : en:THE AMULET
01:12:04.000                : en:AT BUFORD
01:20:17.000                : en:CHASE
01:26:44.000                : en:SAND TO GLASS
01:34:23.000                : en:CREDITS


Код:
raw  [info]: 1280x720p 1:1 @ 24000/1001 fps (cfr)
[info]: using SAR=1/1
[info]: using cpu capabilities: MMX2 SSE2Fast SSSE3 SSE4.2 AVX
[info]: profile High, level 4.1
[info]: frame I:886   Avg QP:14.33  size:163911
[info]: frame P:29588 Avg QP:18.45  size: 61498
[info]: frame B:108246 Avg QP:19.63  size: 25694
[info]: consecutive B-frames:  1.7%  3.7%  6.1% 15.4% 17.9% 47.4%  6.4%  0.5%  0.4%  0.1%  0.1%  0.1%  0.3%
[info]: mb I  I16..4: 16.6% 62.0% 21.4%
[info]: mb P  I16..4:  1.2% 17.4%  1.8%  P16..4: 26.5% 32.9% 12.2%  2.7%  0.4%    skip: 5.0%
[info]: mb B  I16..4:  0.2%  3.3%  0.2%  B16..8: 35.8% 24.2%  4.2%  direct: 8.7%  skip:23.4%  L0:41.9% L1:42.6% BI:15.5%
[info]: 8x8 transform intra:85.6% inter:51.8%
[info]: direct mvs  spatial:99.0% temporal:1.0%
[info]: coded y,uvDC,uvAC intra: 94.0% 81.3% 51.2% inter: 39.1% 28.6% 3.4%
[info]: i16 v,h,dc,p: 20% 12% 19% 49%
[info]: i8 v,h,dc,ddl,ddr,vr,hd,vl,hu:  8%  8% 12% 10% 13% 12% 12% 12% 14%
[info]: i4 v,h,dc,ddl,ddr,vr,hd,vl,hu: 10%  9%  5%  9% 14% 14% 13% 12% 13%
[info]: i8c dc,h,v,p: 39% 26% 19% 17%
[info]: Weighted P-Frames: Y:5.3% UV:3.8%
[info]: ref P L0: 42.3% 10.1% 20.3%  7.2%  6.5%  4.2%  4.2%  2.3%  2.6%  0.3%  0.0%
[info]: ref B L0: 78.1% 10.6%  4.6%  2.5%  1.7%  1.4%  0.8%  0.4%
[info]: ref B L1: 95.3%  4.7%
[info]: kb/s:6562.47
encoded 138720 frames, 7.24 fps, 6562.47 kb/s
Final statistics
Constant Quality Mode: Quality 17 computed...
Video Bitrate Obtained (approximate): 6562 kbit/s



Джерела та подяки:
українська доріжка - НТН


ЗАЛИШАЙТЕСЬ ЯКОМОГА ДОВШЕ НА РОЗДАЧІ!
СКАЧАВ САМ - ДАЙ СКАЧАТИ ІНШИМ


 Трекер:    Зареєстрований   

Завантажити / скачати фільм українською



відео для новачків



 Зареєстрований:   2016-03-31 15:27
 Розмір:   5.57 GB 
 Оцінка фільму:   3.6/10 (Голосів: 14)
   
Інші релізи
   Піски забуття / Sands of Oblivion (2007) Ukr/Eng НТН  1 / 0   1.46 GB   2015-10-07 13:35 
bot 
робот


З нами з: 30.09.07
Востаннє: 26.05.05
Повідомлень: 16040

2016-03-31 15:26  
Тему перенесено з Анонси релізів до форуму Фільми в HD


igor911

Ваш часовий пояс: GMT + 2 Години

Нова тема   Відповісти