Завантажити та скачати торренти українською


Історія іграшок: Веселозавр Рекс / Toy Story Toons: Partysaurus Rex (2012) Ukr/Eng | Sub Ukr/Eng

Нові коментарі

Нова тема   Відповісти
Автор Повідомлення
Anonymous 







2016-03-30 21:39  
Історія іграшок: Веселозавр Рекс / Toy Story Toons: Partysaurus Rex (2012) Ukr/Eng | Sub Ukr/Eng

Історія іграшок: Веселозавр Рекс / Toy Story Toons: Partysaurus Rex (2012) Ukr/Eng | Sub Ukr/Eng


Жанр: анімація, короткометражний, комедія, сімейний
Країна: США



Кінокомпанія: Pixar Animation Studios, Walt Disney Pictures
Режисер: Марк А. Волш / Mark A. Walsh
Актори: Том Генкс / Tom Hanks, Тім Аллен / Tim Allen, Воллес Шоун / Wallace Shawn, Корі Бартон / Corey Burton, Тоні Кокс / Tony Cox, Дональд Фуллілав / Donald Fullilove, Емілі Ган / Emily Hahn, Дон Ріклз / Don Rickles, Лорі Алан / Lori Alan, Естель Гарріс / Estelle Harris, Джон Раценбергер / John Ratzenberger, Maрк А. Волш / Mark A. Walsh, Тімоті Далтон / Timothy Dalton, Джоан К'юсак / Joan Cusack, Шеррі Лін / Sherry Lynn

Сюжет:
Бідний Рекс. Інші іграшки думають, що він нудний та псує всі вечірки. Але коли Бонні вирішує погратись з ним під час вечірнього купання, з зануди він вмить перетворюється на ... Веселозавра Рекса! Коли заразні веселощі, що панують у ванній, охоплють База, Вуді та інших персонажів з "Історії іграшок", вони змушені визнати, що Рекс - справжній король цієї пінної вечірки!


Рейтинг MPAA: G - нема вікових обмежень
Вікова категорія: 0+

Тривалість: 00:06:34
Якість: (власний ріп)
Відео:
кодек:
розмір кадру: 720x408
бітрейт: 2045 кбіт/с

Аудіо # 1:
мова: українська
озвучення: одноголосе закадрове | SaP-SaP Records - озвучив DS-F.A.I.K.
переклад: Віктор Багряний
кодек: 2.0
бітрейт: 256 кбіт/с

Аудіо # 2:
мова: англійська
переклад: оригінал
кодек: 5.1
бітрейт: 448 кбіт/с

Субтитри # 1:
мова: українська (завантажити)
тип: програмні (м'які)
формат: *.srt
автор: Віктор Багряний

Субтитри # 2-3:
мова: англійська (завантажити - повні, SDH)
тип: програмні (м'які)
формат: *.srt
MediaInfo
Код:
Complete name               : Toy Story. Partysaurus Rex (2012) [Ukr,Eng] [Hurtom].avi
Format                      : AVI
Format/Info                 : Audio Video Interleave
File size                   : 130 MiB
Duration                    : 6mn 34s
Overall bit rate            : 2 763 Kbps
Movie name                  : Історія іграшок: Веселозавр Рекс / Toy Story Toons: Partysaurus Rex (2012)
Director                    : igor911
Genre                       : анімація, короткометражний, комедія, сімейний
Writing application         : VirtualDubModRus 1.5.10.2 (build 2540/release)
Writing library             : VirtualDubMod build 2540/release
Copyright                   : Hurtom.com
Comment                     : 30.03.2016

Video
ID                          : 0
Format                      : MPEG-4 Visual
Format profile              : Advanced [email protected]
Format settings, BVOP       : 1
Format settings, QPel       : No
Format settings, GMC        : No warppoints
Format settings, Matrix     : Default (H.263)
Codec ID                    :
Codec ID/Hint               :
Duration                    : 6mn 34s
Bit rate                    : 2 045 Kbps
Width                       : 720 pixels
Height                      : 408 pixels
Display aspect ratio        : 16:9
Frame rate                  : 23.976 fps
Color space                 : YUV
Chroma subsampling          : 4:2:0
Bit depth                   : 8 bits
Scan type                   : Progressive
Compression mode            : Lossy
Bits/(Pixel*Frame)          : 0.290
Stream size                 : 96.1 MiB (74%)
Writing library             : 67

Audio #1
ID                          : 1
Format                      : AC-3
Format/Info                 : Audio Coding 3
Mode extension              : CM (complete main)
Format settings, Endianness : Big
Codec ID                    : 2000
Duration                    : 6mn 34s
Bit rate mode               : Constant
Bit rate                    : 256 Kbps
Channel(s)                  : 2 channels
Channel positions           : Front: L R
Sampling rate               : 48.0 KHz
Compression mode            : Lossy
Stream size                 : 12.0 MiB (9%)
Alignment                   : Split accross interleaves
Interleave, duration        : 42 ms (1.00 video frame)
Interleave, preload duratio : 500 ms
Title                       : UKR AVO [SaP-SaP Records]

Audio #2
ID                          : 2
Format                      : AC-3
Format/Info                 : Audio Coding 3
Mode extension              : CM (complete main)
Format settings, Endianness : Big
Codec ID                    : 2000
Duration                    : 6mn 34s
Bit rate mode               : Constant
Bit rate                    : 448 Kbps
Channel(s)                  : 6 channels
Channel positions           : Front: L C R, Side: L R, LFE
Sampling rate               : 48.0 KHz
Compression mode            : Lossy
Stream size                 : 21.1 MiB (16%)
Alignment                   : Split accross interleaves
Interleave, duration        : 42 ms (1.00 video frame)
Interleave, preload duratio : 500 ms
Title                       : Eng



Джерела та подяки:
українська доріжка - DS-F.A.I.K., субтитри, постер - Віктор Багряний.


ЗАЛИШАЙТЕСЬ ЯКОМОГА ДОВШЕ НА РОЗДАЧІ!
СКАЧАВ САМ - ДАЙ СКАЧАТИ ІНШИМ


Авторський реліз (завантажувати можна без реєстрації)
 Трекер:    Зареєстрований   

Завантажити / скачати мультфільм українською



відео для новачків



 Зареєстрований:   2016-03-30 21:39
 Розмір:   130 MB 
 Оцінка мультфільму:   4.6/10 (Голосів: 20)
   
nadinka-dreamka 
Новенький


З нами з: 12.07.14
Востаннє: 16.11.16
Повідомлень: 3

2016-11-15 18:25  
Короткометражний, але Бомбезний мульт!!! )
Ваш часовий пояс: GMT + 2 Години

Нова тема   Відповісти