Завантажити та скачати торренти українською


Історія іграшок: Веселозавр Рекс / Toy Story Toons: Partysaurus Rex (2012) AVC Ukr/Eng | Sub Ukr/Eng

Нові коментарі

Нова тема   Відповісти
Автор Повідомлення
Anonymous 







2016-03-30 21:30  
Історія іграшок: Веселозавр Рекс / Toy Story Toons: Partysaurus Rex (2012) AVC Ukr/Eng | Sub Ukr/Eng

Історія іграшок: Веселозавр Рекс / Toy Story Toons: Partysaurus Rex (2012) AVC Ukr/Eng | Sub Ukr/Eng


Жанр: анімація, короткометражний, комедія, сімейний
Країна: США



Кінокомпанія: Pixar Animation Studios, Walt Disney Pictures
Режисер: Марк А. Волш / Mark A. Walsh
Актори: Том Генкс / Tom Hanks, Тім Аллен / Tim Allen, Воллес Шоун / Wallace Shawn, Корі Бартон / Corey Burton, Тоні Кокс / Tony Cox, Дональд Фуллілав / Donald Fullilove, Емілі Ган / Emily Hahn, Дон Ріклз / Don Rickles, Лорі Алан / Lori Alan, Естель Гарріс / Estelle Harris, Джон Раценбергер / John Ratzenberger, Maрк А. Волш / Mark A. Walsh, Тімоті Далтон / Timothy Dalton, Джоан К'юсак / Joan Cusack, Шеррі Лін / Sherry Lynn

Сюжет:
Бідний Рекс. Інші іграшки думають, що він нудний та псує всі вечірки. Але коли Бонні вирішує погратись з ним під час вечірнього купання, з зануди він вмить перетворюється на ... Веселозавра Рекса! Коли заразні веселощі, що панують у ванній, охоплють База, Вуді та інших персонажів з "Історії іграшок", вони змушені визнати, що Рекс - справжній король цієї пінної вечірки!


Рейтинг MPAA: G - нема вікових обмежень
Вікова категорія: 0+

Тривалість: 00:06:34
Якість: AVC (власний ріп)
Відео:
кодек:
розмір кадру: 1024x576
бітрейт: 2238 кбіт/с [crf=18]

Аудіо # 1:
мова: українська
озвучення: одноголосе закадрове | SaP-SaP Records - озвучив DS-F.A.I.K.
переклад: Віктор Багряний
кодек: 2.0
бітрейт: 256 кбіт/с

Аудіо # 2:
мова: англійська
переклад: оригінал
кодек: 5.1
бітрейт: 448 кбіт/с

Субтитри # 1:
мова: українська
тип: програмні (м'які)
формат: *.srt
автор: Віктор Багряний

Субтитри # 2-3:
мова: англійська (повні, SDH)
тип: програмні (м'які)
формат: *.srt
MediaInfo та log
Код:
Complete name               : Toy Story. Partysaurus Rex (2012) [Ukr,Eng sub.Ukr,Eng] AVC [Hurtom].mkv
Format                      : Matroska
Format version              : Version 4 / Version 2
File size                   : 139 MiB
Duration                    : 6mn 34s
Overall bit rate            : 2 954 Kbps
Movie name                  : Історія іграшок: Веселозавр Рекс / Toy Story Toons: Partysaurus Rex (2012) [Ukr,Eng sub.Ukr,Eng] AVC [Hurtom-igor911]
Encoded date                : UTC 2016-03-30 16:36:30
Writing application         : mkvmerge v9.0.1 ('Obstacles') 64bit
Writing library             : libebml v1.3.3 + libmatroska v1.4.4
Attachements                : cover.jpg
DURATION                    : 00:06:04.446000000
NUMBER_OF_FRAMES            : 139
NUMBER_OF_BYTES             : 3663
_STATISTICS_WRITING_APP     : mkvmerge v9.0.1 ('Obstacles') 64bit
_STATISTICS_WRITING_DATE_UT : 2016-03-30 16:36:30
_STATISTICS_TAGS            : BPS DURATION NUMBER_OF_FRAMES NUMBER_OF_BYTES

Video
ID                          : 1
Format                      : AVC
Format/Info                 : Advanced Video Codec
Format profile              : [email protected]
Format settings, CABAC      : Yes
Format settings, ReFrames   : 9 frames
Codec ID                    : V_MPEG4/ISO/AVC
Duration                    : 6mn 34s
Bit rate                    : 2 191 Kbps
Width                       : 1 024 pixels
Height                      : 576 pixels
Display aspect ratio        : 16:9
Frame rate mode             : Constant
Frame rate                  : 23.976 fps
Color space                 : YUV
Chroma subsampling          : 4:2:0
Bit depth                   : 8 bits
Scan type                   : Progressive
Bits/(Pixel*Frame)          : 0.155
Stream size                 : 103 MiB (74%)
Title                       : Історія іграшок: Веселозавр Рекс / Toy Story Toons: Partysaurus Rex (2012) AVC [Hurtom-igor911]
Writing library             : core 148 r2638 7599210
Encoding settings           : cabac=1 / ref=9 / deblock=1:1:1 / analyse=0x3:0x133 / me=umh / subme=11 / psy=1 / psy_rd=0.40:0.00 / mixed_ref=1 / me_range=32 / chroma_me=1 / trellis=2 / 8x8dct=1 / cqm=0 / deadzone=21,11 / fast_pskip=0 / chroma_qp_offset=-2 / threads=12 / lookahead_threads=3 / sliced_threads=0 / nr=0 / decimate=1 / interlaced=0 / bluray_compat=0 / constrained_intra=0 / bframes=10 / b_pyramid=2 / b_adapt=2 / b_bias=0 / direct=3 / weightb=1 / open_gop=0 / weightp=2 / keyint=240 / keyint_min=23 / scenecut=40 / intra_refresh=0 / rc_lookahead=60 / rc=crf / mbtree=1 / crf=18.0 / qcomp=0.60 / qpmin=0 / qpmax=69 / qpstep=4 / vbv_maxrate=50000 / vbv_bufsize=50000 / crf_max=0.0 / nal_hrd=none / filler=0 / ip_ratio=1.40 / aq=1:0.60
Language                    : English
Default                     : Yes
Forced                      : No

Audio #1
ID                          : 2
Format                      : AC-3
Format/Info                 : Audio Coding 3
Mode extension              : CM (complete main)
Format settings, Endianness : Big
Codec ID                    : A_AC3
Duration                    : 6mn 34s
Bit rate mode               : Constant
Bit rate                    : 256 Kbps
Channel(s)                  : 2 channels
Channel positions           : Front: L R
Sampling rate               : 48.0 KHz
Compression mode            : Lossy
Stream size                 : 12.0 MiB (9%)
Title                       : AVO [SaP-SaP Records] 2.0 256 kbps [Hurtom-DS-F.A.I.K.,igor911]
Language                    : Ukrainian
Default                     : Yes
Forced                      : No

Audio #2
ID                          : 3
Format                      : AC-3
Format/Info                 : Audio Coding 3
Mode extension              : CM (complete main)
Format settings, Endianness : Big
Codec ID                    : A_AC3
Duration                    : 6mn 34s
Bit rate mode               : Constant
Bit rate                    : 448 Kbps
Channel(s)                  : 6 channels
Channel positions           : Front: L C R, Side: L R, LFE
Sampling rate               : 48.0 KHz
Compression mode            : Lossy
Stream size                 : 21.1 MiB (15%)
Title                       : Original 5.1 448 kbps
Language                    : English
Default                     : No
Forced                      : No

Text #1
ID                          : 4
Format                      : UTF-8
Codec ID                    : S_TEXT/UTF8
Codec ID/Info               : UTF-8 Plain Text
Title                       : Ukr full [Hurtom-Віктор Багряний]
Language                    : Ukrainian
Default                     : No
Forced                      : No

Text #2
ID                          : 5
Format                      : UTF-8
Codec ID                    : S_TEXT/UTF8
Codec ID/Info               : UTF-8 Plain Text
Title                       : Eng full
Language                    : English
Default                     : No
Forced                      : No

Text #3
ID                          : 6
Format                      : UTF-8
Codec ID                    : S_TEXT/UTF8
Codec ID/Info               : UTF-8 Plain Text
Title                       : Eng SDH
Language                    : English
Default                     : No
Forced                      : No

Код:
raw  [info]: 1024x576p 1:1 @ 24000/1001 fps (cfr)
[info]: using SAR=1/1
[info]: using cpu capabilities: MMX2 SSE2Fast SSSE3 SSE4.2 AVX
[info]: profile High, level 4.1
[info]: frame I:107   Avg QP:15.60  size: 91212
[info]: frame P:2778  Avg QP:20.40  size: 18460
[info]: frame B:6571  Avg QP:23.22  size:  7504
[info]: consecutive B-frames:  5.9%  4.5% 27.4% 30.8% 14.0% 13.3%  1.6%  0.8%  0.9%  0.3%  0.7%
[info]: mb I  I16..4: 14.2% 55.6% 30.1%
[info]: mb P  I16..4:  6.5% 21.2%  3.1%  P16..4: 19.1% 13.5%  4.5%  1.1%  0.2%    skip:30.9%
[info]: mb B  I16..4:  1.4%  4.6%  0.6%  B16..8: 17.2%  8.4%  1.9%  direct: 4.1%  skip:61.7%  L0:41.0% L1:45.0% BI:14.0%
[info]: 8x8 transform intra:68.1% inter:71.4%
[info]: direct mvs  spatial:99.7% temporal:0.3%
[info]: coded y,uvDC,uvAC intra: 58.7% 76.8% 50.3% inter: 12.5% 16.2% 5.9%
[info]: i16 v,h,dc,p:  7% 12%  6% 75%
[info]: i8 v,h,dc,ddl,ddr,vr,hd,vl,hu: 10% 12%  9%  8% 12% 11% 13% 10% 15%
[info]: i4 v,h,dc,ddl,ddr,vr,hd,vl,hu: 13% 12% 13%  7% 12% 10% 11%  9% 12%
[info]: i8c dc,h,v,p: 27% 27% 16% 30%
[info]: Weighted P-Frames: Y:6.6% UV:6.2%
[info]: ref P L0: 54.7% 10.3% 12.6%  6.5%  4.5%  4.2%  2.6%  2.0%  1.7%  0.9%  0.1%
[info]: ref B L0: 82.0%  6.6%  4.1%  2.3%  2.2%  1.6%  0.9%  0.5%
[info]: ref B L1: 94.8%  5.2%
[info]: kb/s:2238.32
encoded 9456 frames, 13.15 fps, 2238.32 kb/s
Final statistics
Constant Quality Mode: Quality 18 computed...



Джерела та подяки:
українська доріжка - DS-F.A.I.K., субтитри, постер - Віктор Багряний.


ЗАЛИШАЙТЕСЬ ЯКОМОГА ДОВШЕ НА РОЗДАЧІ!
СКАЧАВ САМ - ДАЙ СКАЧАТИ ІНШИМ


Авторський реліз (завантажувати можна без реєстрації)
 Трекер:    Зареєстрований   

Завантажити / скачати мультфільм українською



відео для новачків



 Зареєстрований:   2016-03-30 21:30
 Розмір:   139 MB 
 Оцінка мультфільму:   1.8/10 (Голосів: 12)
   
Ваш часовий пояс: GMT + 2 Години

Нова тема   Відповісти