Завантажити та скачати торренти українською


Ворог держави №1. Дилогія / L'instinct de mort, L'ennemi public n°1 / Mesrine Part 1: Killer Instinct, Mesrine Part 2: Public Enemy #1 (2008) 720p Ukr/Fre | Sub Eng

Нові коментарі

Нова тема   Відповісти
Автор Повідомлення
Anonymous 







2016-03-28 14:02  
Ворог держави №1 / Mesrine Part 1: Killer Instinct / L'instinct de mort (2008)
720p Ukr/Fre | Sub Eng

+
Ворог держави №1. Легенда / Mesrine Part 2: Public Enemy #1 / L'ennemi public n°1 (2008)
720p Ukr/Fre | Sub Eng





Альтернативні постери та обкладинки






повнорозмірні зображення відкриються по кліку (з натиснутим CTRL чи кліком середньою кнопкою мишки - у новій вкладці)




Жанр: екшн, біографічний, кримінальний, драма, трилер
Країна: Франція, Канада

Рейтинг MPAA: R - особам до 17 років обов'язкова присутність батьків або дорослого опікуна
Вікова категорія: 16+

Сюжет:
Впродовж майже двох десятків років Жак Месрін, знаменитий французький ґанґстер, який в 70-і роки був справжнім ворогом держави №1, вихідець з успішної буржуазної родини, організовував і брав участь у численних збройних нападах на французькі банки з рідкими перервами на тюремні відсидки, поки не був схоплений канадською поліцією під час чергового пограбування.

Жак Месрін, великий французький ґанґстер, прославився у себе на батьківщині більше, ніж найяскравіша кінозірка. Авантюри Месріна завжди були запаморочливо відчайдушними, відчайдушно зухвалими і абсолютно непередбачуваними у своєму задумі. Не даремно його називали "людиною з тисячею облич". Відправляючись на нову велику "справу", він завжди змінював вигляд, робив пластичні операції, використовував грим ... перевтілюючись до невпізнання.

Його обожнював народ, ним захоплювалися жінки, а влада вважала "ворогом держави №1"! Його лихі "подвиги" і численні втечі з в'язниць, запаморочливі любовні романи, феєричні пригоди і виключно цинічне, але по-галльски дотепне багаторічне знущання над поліцією - все це нині перетворилося для французів у справжній народний епос. Епос про людину, яка вміла бути справжнім героєм. Або антигероєм...
• Зйомки першої та другої частин проходили одночасно протягом 33-х тижнів з 7 травня 2007 по січень 2008 р.
• Зйомки відбувались у Франції, Канаді, США, Іспанії, Великій Британії та Алжирі - у всіх країнах, де був Жак Мерін.
• Жак Мерін - останній з французьких ґанґстерів, що був проголошений "ворогом держави №1" і залишався ним все життя. Він регулярно фігурував у переліку головних ньюзмейкерів та за опитуваннями громадської думки був найскандальнішою персоною свого часу.


Ворог держави №1 / Mesrine Part 1: Killer Instinct / L'instinct de mort (2008) 720p Ukr/Fre | Sub Eng

Ворог держави №1 / Mesrine Part 1: Killer Instinct / L'instinct de mort (2008) 720p Ukr/Fre | Sub Eng



Альтернативні постери та обкладинки








повнорозмірні зображення відкриються по кліку (з натиснутим CTRL чи кліком середньою кнопкою мишки - у новій вкладці)


Жанр: екшн, біографічний, кримінальний, драма, трилер
Країна: Франція, Канада



Кінокомпанія: La Petite Reine, Remstar Productions, Novo RPI, M6 Films, Canal+, TPS Star, 120 Films, Région Haute-Normandie, Procirep, Angoa-Agicoa, Centre National de la Cinématographie (CNC), Téléfilm Canada, Société de Développement des Entreprises Culturelles (SODEC), Uni Etoile 4, Uni Étoile 5, Banque Populaire Images 8, Cinémage 2
Режисер: Жан-Франсуа Ріше / Jean-François Richet
Актори: Вінсан Касель / Vincent Cassel, Сесіль де Франс / Cécile De France, Жерар Депард’є / Gerard Depardieu, Жіль Лелуш / Gilles Lellouche, Рой Дюпюі / Roy Dupuis, Єлена Анайя / Elena Anaya, Флоранс Томассін / Florence Thomassin та інші

Тривалість: 01:53:50
Якість: 720p [ріп від SbR]
Відео:
кодек:
розмір кадру: 1280 x 546
бітрейт: 7070 кбіт/с [crf=16.7]

Аудіо # 1:
мова: українська
переклад: багатоголосий закадровий
кодек: 2.0
бітрейт: 192 кбіт/с

Аудіо # 2:
мова: французька
переклад: оригінал
кодек: 5.1
бітрейт: 1509 кбіт/с

Субтитри:
мова: англійська
тип: програмні (м'які)
формат: *.srt

Збережено оригінальні розділи, як на Blu-ray.
MediaInfo та log
Код:
Complete name               : 1.L'instinct de mort (Mesrine Part1. Killer Instinct, 2008) [Ukr,Fre sub.Eng] 720p [Hurtom&HDClub].mkv
Format                      : Matroska
Format version              : Version 4 / Version 2
File size                   : 7.09 GiB
Duration                    : 1h 53mn
Overall bit rate            : 8 949 Kbps
Movie name                  : Ворог держави №1 / Mesrine Part 1: Killer Instinct / L'instinct de mort (2008) [Ukr,Fre sub.Eng] 720p [Hurtom&HDClub] by igor911
Encoded date                : UTC 2016-03-28 12:28:48
Writing application         : mkvmerge v9.0.0 ('Power to progress') 64bit
Writing library             : libebml v1.3.3 + libmatroska v1.4.4
Attachements                : cover.jpg / xlog.txt
DURATION                    : 01:48:10.407000000
NUMBER_OF_FRAMES            : 1033
NUMBER_OF_BYTES             : 22798
_STATISTICS_WRITING_APP     : mkvmerge v9.0.0 ('Power to progress') 64bit
_STATISTICS_WRITING_DATE_UT : 2016-03-28 12:28:48
_STATISTICS_TAGS            : BPS DURATION NUMBER_OF_FRAMES NUMBER_OF_BYTES

Video
ID                          : 1
Format                      : AVC
Format/Info                 : Advanced Video Codec
Format profile              : [email protected]
Format settings, CABAC      : Yes
Format settings, ReFrames   : 11 frames
Codec ID                    : V_MPEG4/ISO/AVC
Duration                    : 1h 53mn
Bit rate                    : 7 070 Kbps
Width                       : 1 280 pixels
Height                      : 546 pixels
Display aspect ratio        : 2.35:1
Frame rate mode             : Constant
Frame rate                  : 23.976 fps
Color space                 : YUV
Chroma subsampling          : 4:2:0
Bit depth                   : 8 bits
Scan type                   : Progressive
Bits/(Pixel*Frame)          : 0.422
Stream size                 : 5.60 GiB (79%)
Title                       : Ворог держави №1 / Mesrine Part 1: Killer Instinct / L'instinct de mort (2008) 720p [HDClub-SbR]
Writing library             : core 148 r2665kMod a01e339
Encoding settings           : cabac=1 / ref=11 / deblock=1:-2:-2 / analyse=0x3:0x133 / me=umh / subme=11 / psy=1 / fade_compensate=0.00 / psy_rd=1.00:0.00 / mixed_ref=1 / me_range=32 / chroma_me=1 / trellis=2 / 8x8dct=1 / cqm=0 / deadzone=21,11 / fast_pskip=1 / chroma_qp_offset=-2 / threads=12 / lookahead_threads=2 / sliced_threads=0 / nr=0 / decimate=1 / interlaced=0 / bluray_compat=0 / constrained_intra=0 / fgo=0 / bframes=8 / b_pyramid=2 / b_adapt=2 / b_bias=0 / direct=1 / weightb=1 / open_gop=0 / weightp=2 / keyint=250 / keyint_min=23 / scenecut=40 / intra_refresh=0 / rc_lookahead=60 / rc=crf / mbtree=0 / crf=16.7000 / qcomp=0.70 / qpmin=0 / qpmax=69 / qpstep=4 / vbv_maxrate=62500 / vbv_bufsize=78125 / crf_max=0.0 / nal_hrd=none / filler=0 / ip_ratio=1.40 / pb_ratio=1.30 / aq=1:0.80
Language                    : French
Default                     : Yes
Forced                      : No
Color range                 : Limited
Color primaries             : BT.709
Transfer characteristics    : BT.709
Matrix coefficients         : BT.709

Audio #1
ID                          : 2
Format                      : AC-3
Format/Info                 : Audio Coding 3
Mode extension              : CM (complete main)
Format settings, Endianness : Big
Codec ID                    : A_AC3
Duration                    : 1h 53mn
Bit rate mode               : Constant
Bit rate                    : 192 Kbps
Channel(s)                  : 2 channels
Channel positions           : Front: L R
Sampling rate               : 48.0 KHz
Compression mode            : Lossy
Stream size                 : 156 MiB (2%)
Title                       : MVO [1+1] 2.0 192 kbps [Hurtom-patriot2305,OlegCena]
Language                    : Ukrainian
Default                     : Yes
Forced                      : No

Audio #2
ID                          : 3
Format                      :
Format/Info                 : Digital Theater Systems
Mode                        : 16
Format settings, Endianness : Big
Codec ID                    : A_DTS
Duration                    : 1h 53mn
Bit rate mode               : Constant
Bit rate                    : 1 509 Kbps
Channel(s)                  : 6 channels
Channel positions           : Front: L C R, Side: L R, LFE
Sampling rate               : 48.0 KHz
Bit depth                   : 24 bits
Compression mode            : Lossy
Stream size                 : 1.20 GiB (17%)
Title                       : Original 5.1 1509 kbps
Language                    : French
Default                     : No
Forced                      : No

Text
ID                          : 4
Format                      : UTF-8
Codec ID                    : S_TEXT/UTF8
Codec ID/Info               : UTF-8 Plain Text
Language                    : English
Default                     : No
Forced                      : No

Menu
00:00:00.000                : en:Chapter 1
00:08:30.549                : en:Chapter 2
00:17:25.959                : en:Chapter 3
00:27:12.253                : en:Chapter 4
00:37:23.780                : en:Chapter 5
00:42:55.570                : en:Chapter 6
00:53:33.833                : en:Chapter 7
01:02:01.632                : en:Chapter 8
01:10:29.514                : en:Chapter 9
01:18:56.479                : en:Chapter 10
01:32:28.165                : en:Chapter 11
01:40:00.784                : en:Chapter 12


Код:
raw [info]: 1280x546p 1:1 @ 23/1 fps (cfr)
[info]: using SAR=1/1
[info]: using cpu capabilities: MMX2 SSE2Fast SSSE3 SSE4.2 AVX
[info]: profile High, level 4.1
[info]: frame I:1366  Avg QP:14.77  size:117584
[info]: frame P:35855 Avg QP:16.50  size: 67442
[info]: frame B:125980 Avg QP:18.60  size: 28461
[info]: consecutive B-frames:  2.6%  3.0% 10.3% 14.2% 12.7% 47.5%  4.6%  1.6%  3.4%
[info]: mb I  I16..4:  5.8% 80.3% 13.9%
[info]: mb P  I16..4:  0.6% 30.6%  2.7%  P16..4: 17.7% 24.2% 13.9%  2.3%  0.2%    skip: 7.9%
[info]: mb B  I16..4:  0.1%  4.7%  0.5%  B16..8: 31.9% 27.9%  8.1%  direct: 7.6%  skip:19.1%  L0:43.1% L1:41.1% BI:15.8%
[info]: 8x8 transform intra:89.2% inter:53.9%
[info]: coded y,uvDC,uvAC intra: 94.2% 95.0% 85.3% inter: 47.2% 35.7% 12.2%
[info]: i16 v,h,dc,p: 65%  8%  6% 21%
[info]: i8 v,h,dc,ddl,ddr,vr,hd,vl,hu: 10%  8% 12% 10% 13% 12% 12% 11% 13%
[info]: i4 v,h,dc,ddl,ddr,vr,hd,vl,hu: 42%  5%  5%  6% 10%  9%  8%  7%  7%
[info]: i8c dc,h,v,p: 49% 18% 16% 17%
[info]: Weighted P-Frames: Y:3.5% UV:2.0%
[info]: ref P L0: 43.7% 11.1% 18.3%  6.7%  5.8%  3.7%  3.6%  2.0%  2.0%  1.4%  1.6%  0.2%  0.0%
[info]: ref B L0: 75.5% 10.9%  4.8%  2.7%  1.8%  1.6%  1.2%  0.9%  0.5%  0.2%
[info]: ref B L1: 94.7%  5.3%
[info]: kb/s:6949.81

encoded 163201 frames, 6.41 fps, 6949.81 kb/s, duration 7:04:06.47

Ріп <---------->Оригінал





Ворог держави №1. Легенда / Mesrine Part 2: Public Enemy #1 / L'ennemi public n°1 (2008) 720p Ukr/Fre | Sub Eng

Ворог держави № 1. Легенда / Mesrine Part 2: Public Enemy #1 / L'ennemi public n°1 (2008) 720p Ukr/Fre | Sub Eng



Альтернативні постери та обкладинки






повнорозмірні зображення відкриються по кліку (з натиснутим CTRL чи кліком середньою кнопкою мишки - у новій вкладці)



3 преміїі Сезар (2009) - найкращий актор (Вінсан Касель), найкращий режисер, найкращий звук


Жанр: екшн, біографічний, кримінальний, драма, трилер
Країна: Франція, Канада



Кінокомпанія: La Petite Reine, M6 Films, Remstar Productions, Canal+, TPS Star, 120 Films, Natixis Coficiné, Uni Etoile 4, Uni Étoile 5, Cinémage 2, Banque Populaire Images 8, Région Haute-Normandie, Centre National de la Cinématographie (CNC), Pathé
Режисер: Жан-Франсуа Ріше / Jean-François Richet
Актори: Вінсан Касель / Vincent Cassel, Людівін Саньє / Ludivine Sagnier, Матьє Амальрік / Mathieu Amalric, Сам'юель Ле Біан / Samuel Le Bihan, Жерар Ланвін / Gérard Lanvin, Олів'є Ґурме / Olivier Gourmet, Джорж Вільсон / Georges Wilson та інші

Тривалість: 02:13:18
Якість: 720p [ріп від SbR]
Відео:
кодек:
розмір кадру: 1280 x 546
бітрейт: 6592 кбіт/с [crf=16.7]

Аудіо # 1:
мова: українська
переклад: багатоголосий закадровий
кодек: 2.0
бітрейт: 192 кбіт/с

Аудіо # 2:
мова: французька
переклад: оригінал
кодек: 5.1
бітрейт: 1509 кбіт/с

Субтитри:
мова: англійська
тип: програмні (м'які)
формат: *.srt

Збережено оригінальні розділи, як на Blu-ray.
MediaInfo та log
Код:
Complete name               : 2.L'ennemi public n1 (Mesrine Part2. Public Enemy #1, 2008) [Ukr,Fre sub.Eng] 720p [Hurtom&.HDClub].mkv
Format                      : Matroska
Format version              : Version 4 / Version 2
File size                   : 7.88 GiB
Duration                    : 2h 13mn
Overall bit rate            : 8 461 Kbps
Movie name                  : Ворог держави №1. Легенда / Mesrine Part 2: Public Enemy #1 / L'ennemi public n°1 (2008) [Ukr,Fre sub.Eng] 720p [Hurtom & HDClub] by igor911
Encoded date                : UTC 2016-03-28 15:29:51
Writing application         : mkvmerge v9.0.0 ('Power to progress') 64bit
Writing library             : libebml v1.3.3 + libmatroska v1.4.4
Attachements                : cover.jpg / xlog.txt
DURATION                    : 02:07:22.726000000
NUMBER_OF_FRAMES            : 1491
NUMBER_OF_BYTES             : 36747
_STATISTICS_WRITING_APP     : mkvmerge v9.0.0 ('Power to progress') 64bit
_STATISTICS_WRITING_DATE_UT : 2016-03-28 15:29:51
_STATISTICS_TAGS            : BPS DURATION NUMBER_OF_FRAMES NUMBER_OF_BYTES

Video
ID                          : 1
Format                      : AVC
Format/Info                 : Advanced Video Codec
Format profile              : [email protected]
Format settings, CABAC      : Yes
Format settings, ReFrames   : 11 frames
Codec ID                    : V_MPEG4/ISO/AVC
Duration                    : 2h 13mn
Bit rate                    : 6 592 Kbps
Width                       : 1 280 pixels
Height                      : 546 pixels
Display aspect ratio        : 2.35:1
Frame rate mode             : Constant
Frame rate                  : 23.976 fps
Color space                 : YUV
Chroma subsampling          : 4:2:0
Bit depth                   : 8 bits
Scan type                   : Progressive
Bits/(Pixel*Frame)          : 0.393
Stream size                 : 6.14 GiB (78%)
Title                       : Ворог держави №1. Легенда / Mesrine Part 2: Public Enemy #1 / L'ennemi public n°1 (2008) 720p [HDClub-SbR]
Writing library             : core 148 r2665kMod a01e339
Encoding settings           : cabac=1 / ref=11 / deblock=1:-2:-2 / analyse=0x3:0x133 / me=umh / subme=11 / psy=1 / fade_compensate=0.00 / psy_rd=1.00:0.00 / mixed_ref=1 / me_range=32 / chroma_me=1 / trellis=2 / 8x8dct=1 / cqm=0 / deadzone=21,11 / fast_pskip=1 / chroma_qp_offset=-2 / threads=12 / lookahead_threads=2 / sliced_threads=0 / nr=0 / decimate=1 / interlaced=0 / bluray_compat=0 / constrained_intra=0 / fgo=0 / bframes=8 / b_pyramid=2 / b_adapt=2 / b_bias=0 / direct=1 / weightb=1 / open_gop=0 / weightp=2 / keyint=250 / keyint_min=23 / scenecut=40 / intra_refresh=0 / rc_lookahead=60 / rc=crf / mbtree=0 / crf=16.7000 / qcomp=0.70 / qpmin=0 / qpmax=69 / qpstep=4 / vbv_maxrate=62500 / vbv_bufsize=78125 / crf_max=0.0 / nal_hrd=none / filler=0 / ip_ratio=1.40 / pb_ratio=1.30 / aq=1:0.80
Language                    : French
Default                     : Yes
Forced                      : No
Color range                 : Limited
Color primaries             : BT.709
Transfer characteristics    : BT.709
Matrix coefficients         : BT.709

Audio #1
ID                          : 2
Format                      : AC-3
Format/Info                 : Audio Coding 3
Mode extension              : CM (complete main)
Format settings, Endianness : Big
Codec ID                    : A_AC3
Duration                    : 2h 13mn
Bit rate mode               : Constant
Bit rate                    : 192 Kbps
Channel(s)                  : 2 channels
Channel positions           : Front: L R
Sampling rate               : 48.0 KHz
Compression mode            : Lossy
Stream size                 : 183 MiB (2%)
Title                       : MVO [1+1] 2.0 192 kbps [Hurtom-patriot2305,OlegCena,Sando7]
Language                    : Ukrainian
Default                     : Yes
Forced                      : No

Audio #2
ID                          : 3
Format                      :
Format/Info                 : Digital Theater Systems
Mode                        : 16
Format settings, Endianness : Big
Codec ID                    : A_DTS
Duration                    : 2h 13mn
Bit rate mode               : Constant
Bit rate                    : 1 509 Kbps
Channel(s)                  : 6 channels
Channel positions           : Front: L C R, Side: L R, LFE
Sampling rate               : 48.0 KHz
Bit depth                   : 24 bits
Compression mode            : Lossy
Stream size                 : 1.41 GiB (18%)
Title                       : Original 5.1 1509 kbps
Language                    : French
Default                     : No
Forced                      : No

Text
ID                          : 4
Format                      : UTF-8
Codec ID                    : S_TEXT/UTF8
Codec ID/Info               : UTF-8 Plain Text
Language                    : English
Default                     : No
Forced                      : No

Menu
00:00:00.000                : en:Chapter 1
00:09:39.451                : en:Chapter 2
00:19:36.798                : en:Chapter 3
00:32:47.797                : en:Chapter 4
00:42:04.811                : en:Chapter 5
00:52:06.954                : en:Chapter 6
01:01:36.774                : en:Chapter 7
01:19:21.879                : en:Chapter 8
01:32:17.571                : en:Chapter 9
01:40:36.361                : en:Chapter 10
01:51:23.382                : en:Chapter 11
02:02:53.572                : en:Chapter 12


Код:
raw [info]: 1280x546p 1:1 @ 23/1 fps (cfr)
[info]: using SAR=1/1
[info]: using cpu capabilities: MMX2 SSE2Fast SSSE3 SSE4.2 AVX
[info]: profile High, level 4.1
[info]: frame I:1703  Avg QP:15.07  size:113770
[info]: frame P:43141 Avg QP:16.56  size: 64558
[info]: frame B:146917 Avg QP:18.67  size: 25705
[info]: consecutive B-frames:  3.2%  3.6%  9.3% 14.5% 13.0% 48.4%  4.4%  0.9%  2.7%
[info]: mb I  I16..4:  4.0% 82.3% 13.7%
[info]: mb P  I16..4:  0.6% 30.6%  2.6%  P16..4: 18.8% 26.3% 14.2%  2.3%  0.1%    skip: 4.4%
[info]: mb B  I16..4:  0.1%  3.4%  0.4%  B16..8: 33.7% 29.9%  8.2%  direct: 7.6%  skip:16.6%  L0:43.3% L1:42.0% BI:14.8%
[info]: 8x8 transform intra:88.7% inter:54.3%
[info]: coded y,uvDC,uvAC intra: 94.2% 94.5% 83.0% inter: 48.2% 32.3% 8.9%
[info]: i16 v,h,dc,p: 58%  8%  6% 28%
[info]: i8 v,h,dc,ddl,ddr,vr,hd,vl,hu: 11%  8% 11% 10% 13% 12% 12% 11% 13%
[info]: i4 v,h,dc,ddl,ddr,vr,hd,vl,hu: 40%  6%  4%  6% 10% 10%  9%  8%  8%
[info]: i8c dc,h,v,p: 46% 20% 17% 16%
[info]: Weighted P-Frames: Y:3.1% UV:1.5%
[info]: ref P L0: 43.9% 10.8% 18.2%  6.7%  5.9%  3.7%  3.6%  1.9%  2.0%  1.5%  1.6%  0.2%  0.0%
[info]: ref B L0: 75.8% 10.5%  4.9%  2.7%  1.9%  1.6%  1.2%  0.8%  0.5%  0.2%
[info]: ref B L1: 94.7%  5.3%
[info]: kb/s:6481.97

encoded 191761 frames, 6.89 fps, 6481.97 kb/s, duration 7:43:55.73
Ріп <---------->Оригінал





Джерела та подяки: &
українські доріжки - patriot2305 - зведення, OlegCena, Sando7 - запис з ТБ, робота над постерами - igor911 (всі - Гуртом)


ЗАЛИШАЙТЕСЬ ЯКОМОГА ДОВШЕ НА РОЗДАЧІ!
СКАЧАВ САМ - ДАЙ СКАЧАТИ ІНШИМ


Бронзовий реліз (на рейтинг впливає 75% завантаженого)
 Трекер:    Зареєстрований   

Завантажити / скачати фільм українською



відео для новачків



 Зареєстрований:   2016-03-28 21:03
 Розмір:   14.97 GB 
 Оцінка фільму:   4/10 (Голосів: 15)
   
bot 
робот


З нами з: 30.09.07
Востаннє: 26.05.05
Повідомлень: 16051

2016-03-28 21:03  
Тему перенесено з Анонси релізів до форуму Фільми в HD


igor911

Ваш часовий пояс: GMT + 2 Години

Нова тема   Відповісти