Завантажити та скачати торренти українською


VA - Piano Kolo (серія "Jazz Коло") (2CD) (2009) [FLAC] | Jazz

Нові коментарі

Нова тема   Відповісти
Останній раз роздавалося nedud (2016-12-09)
Автор Повідомлення
kolpavel 
VIP


З нами з: 04.05.14
Востаннє: 09.12.16
Повідомлень: 1059

2016-03-26 19:50  
VA - Piano Kolo (серія "Jazz Коло") (2CD) (2009) [FLAC] | Jazz

VA - Piano Kolo (серія "Jazz Коло") (2CD) (2009) [FLAC] | Jazz


Стиль: Jazz
Країна, місто: Україна
Сайти: Офіційний сайт
Видавець: Темпора (№ за каталогом: 040/05 - 041/05)

Пісні та виконавці:
CD1
VA - Piano Kolo (серія "Jazz Коло") (2CD) (2009) [FLAC] | Jazz
01. River of Your Love (Родiон Iванов) музика: Р. Іванов слова: К. Іванова
02. Orange Colored Snow (Трiо Наталі Лебедєвої ) музика: Н. Лебедєва
03. Stomatology (Олексій Саранчін) музика: І. Алабужев
04. Lonely Tune (Павло Шепета) музика: П. Шепета
05. Dances (Олексiй Боголюбов) музика: О. Боголюбов
06. Some Day My Prince Will Come (Павло Вiнокуров) музика: F. Churchill
07. Чорні брови / Black Brows (Олександр Саратский) музика: українська народна пісня
08. В дорозі / The Road (Сергій Шадурський) музика: С. Шадурський
09. Війна / War (Іван Давиденко) музика: І. Давиденко
10. Morning After (Iлля Ересько) музика: С. Овсяников
11. Зимова осінь / Winter Fall (Роксана Смірнова) музика: Р. Смірнова
12. Балада для Е.М. / Ballad for E.M. (Усеїн Бекіров) музика: У. Бекіров
13. Запрошення / Invitation (Юрій Кузнєцов) музика: Ю. Кузнєцов
CD2
VA - Piano Kolo (серія "Jazz Коло") (2CD) (2009) [FLAC] | Jazz
01. Намалюй мені січень.../ Picture me January... (Ігор Стецюк) музика: І. Стецюк слова: М. Бровченко
02. Reflection (Анатолий Алексанян) музика: А. Алексаньян
03. God Father's Mad Orchestra (Петро Пашков) музика: N. Rota
04. Lament (Павло Литвиненко) музика: J. J. Jonson
05. Коханий мій / The Man I Love (В’ячеслав Полянський) музика: G. Gershwin
06. Reflection of the Moon (Дара Навродська) музика: Д. Навродська
07. Гілочка / A Little Branch (Сергій Крашенінніков) музика: С. Крашенінніков
08. Ніч в Тунісі / A Night in Tunisia (Тимур Полянський) музика: D. Gillespie
09. Пробачення / Forgiveness (Євген Дергунов) музика: Є. Дергунов
10. Be-bop (Володимир Соляник) музика: В. Соляник, G. Haslam
11. Dreams (Володимир Прихожай) музика: В. Прихожай
12. Посмішка / Smile (Єфим Чупахін, (Acoustic Quartet) музика: Є. Чупахін
13. Махаон / Machaon (Сергей Давидов) музика: С. Давидов
14. Coda (Юрій Шепета) музика: І. Закус

Тривалість: 02:34:03 (1:17:22+1:16:41)
Мова: інструментальні композиції крім (СD1.1 -англiйська), (CD2.1 - росiйська)
Аудіо-кодек: FLAC
Бітрейт: CD1 - 782 кб/с. CD2 - 761 кб/с
Джерело: трекер
Додаткова інформація:
EAC
Exact Audio Copy V1.0 beta 1 from 15. November 2010

Отчёт EAC об извлечении, выполненном 25. марта 2016, 10:35

Various / VA Jazz Kolo - Piano Kolo CD1

Дисковод: HL-DT-STDVDRAM GH60N Adapter: 0 ID: 0

Режим чтения : Достоверность
Использование точного потока : Да
Отключение кэша аудио : Да
Использование указателей C2 : Нет

Коррекция смещения при чтении : 667
Способность читать области Lead-in и Lead-out : Нет
Заполнение пропущенных сэмплов тишиной : Да
Удаление блоков с тишиной в начале и конце : Нет
При вычислениях CRC использовались нулевые сэмплы : Нет
Интерфейс : Встроенный Win32-интерфейс для Win NT/2000

Выходной формат : Внутренние WAV-операции
Формат сэмплов : 44.100 Гц; 16 бит; стерео

TOC извлечённого CD

Трек | Старт | Длительность | Начальный сектор | Конечный сектор
---------------------------------------------------------------------
1 | 0:00.00 | 9:38.47 | 0 | 43396
2 | 9:38.47 | 7:43.09 | 43397 | 78130
3 | 17:21.56 | 7:15.12 | 78131 | 110767
4 | 24:36.68 | 6:50.08 | 110768 | 141525
5 | 31:27.01 | 6:37.63 | 141526 | 171363
6 | 38:04.64 | 4:16.02 | 171364 | 190565
7 | 42:20.66 | 5:03.24 | 190566 | 213314
8 | 47:24.15 | 4:21.60 | 213315 | 232949
9 | 51:46.00 | 4:44.53 | 232950 | 254302
10 | 56:30.53 | 6:54.72 | 254303 | 285424
11 | 63:25.50 | 3:43.23 | 285425 | 302172
12 | 67:08.73 | 6:34.74 | 302173 | 331796
13 | 73:43.72 | 3:38.57 | 331797 | 348203

Характеристики диапазона извлечения и сообщения об ошибках

Выбранный диапазон

Имя файла D:\Razda4i\Music\piano_kolo\Various - VA Jazz Kolo - Piano Kolo CD1.wav

Пиковый уровень 100.0 %
Скорость извлечения 0.0 X
Качество диапазона 99.9 %
CRC теста 35DD340B
CRC копии 35DD340B
Копирование... OK

Ошибок не произошло

AccurateRip: сводка

Трек 1 : извлечено точно (доверие 1) [F6B5874E]
Трек 2 : извлечено точно (доверие 1) [F5ED7E19]
Трек 3 : извлечено точно (доверие 1) [275E57F8]
Трек 4 : извлечено точно (доверие 1) [EE8FDD3B]
Трек 5 : извлечено точно (доверие 1) [3EE3FBC9]
Трек 6 : извлечено точно (доверие 1) [5BD465D7]
Трек 7 : извлечено точно (доверие 1) [D9C28319]
Трек 8 : извлечено точно (доверие 1) [48DB35C0]
Трек 9 : извлечено точно (доверие 1) [60E51122]
Трек 10 : извлечено точно (доверие 1) [FB056C10]
Трек 11 : извлечено точно (доверие 1) [DFFCAAFD]
Трек 12 : извлечено точно (доверие 1) [2B846300]
Трек 13 : извлечено точно (доверие 1) [446E2772]

Все треки извлечены точно

Конец отчёта

==== Контрольная сумма отчёта F56043B6FCC5E734ABFBC7A2503B4665C0BF1811786ABFD7E1047DBDE8AFD25F ====
Exact Audio Copy V1.0 beta 1 from 15. November 2010

Отчёт EAC об извлечении, выполненном 26. марта 2016, 12:50

Various / VA Jazz Kolo - Piano Kolo CD2

Дисковод: HL-DT-STDVDRAM GH60N Adapter: 0 ID: 0

Режим чтения : Достоверность
Использование точного потока : Да
Отключение кэша аудио : Да
Использование указателей C2 : Нет

Коррекция смещения при чтении : 667
Способность читать области Lead-in и Lead-out : Нет
Заполнение пропущенных сэмплов тишиной : Да
Удаление блоков с тишиной в начале и конце : Нет
При вычислениях CRC использовались нулевые сэмплы : Нет
Интерфейс : Встроенный Win32-интерфейс для Win NT/2000

Выходной формат : Внутренние WAV-операции
Формат сэмплов : 44.100 Гц; 16 бит; стерео

TOC извлечённого CD

Трек | Старт | Длительность | Начальный сектор | Конечный сектор
---------------------------------------------------------------------
1 | 0:00.00 | 5:24.43 | 0 | 24342
2 | 5:24.43 | 8:51.74 | 24343 | 64241
3 | 14:16.42 | 4:18.17 | 64242 | 83608
4 | 18:34.59 | 5:47.19 | 83609 | 109652
5 | 24:22.03 | 2:18.50 | 109653 | 120052
6 | 26:40.53 | 3:58.29 | 120053 | 137931
7 | 30:39.07 | 4:20.55 | 137932 | 157486
8 | 34:59.62 | 4:29.60 | 157487 | 177721
9 | 39:29.47 | 7:50.42 | 177722 | 213013
10 | 47:20.14 | 5:12.70 | 213014 | 236483
11 | 52:33.09 | 4:54.34 | 236484 | 258567
12 | 57:27.43 | 4:39.51 | 258568 | 279543
13 | 62:07.19 | 8:15.56 | 279544 | 316724
14 | 70:23.00 | 6:18.20 | 316725 | 345094

Характеристики диапазона извлечения и сообщения об ошибках

Выбранный диапазон

Имя файла D:\Razda4i\Music\piano_kolo\Various - VA Jazz Kolo - Piano Kolo CD2.wav

Пиковый уровень 100.0 %
Скорость извлечения 0.1 X
Качество диапазона 100.0 %
CRC теста 26676C09
CRC копии 26676C09
Копирование... OK

Ошибок не произошло

AccurateRip: сводка

Трек 1 : извлечено точно (доверие 1) [08AF4E83]
Трек 2 : извлечено точно (доверие 1) [64E782C4]
Трек 3 : извлечено точно (доверие 1) [C56EB3AD]
Трек 4 : извлечено точно (доверие 1) [98B2B70C]
Трек 5 : извлечено точно (доверие 1) [74C7B0AD]
Трек 6 : извлечено точно (доверие 1) [5C3B0D52]
Трек 7 : извлечено точно (доверие 1) [CC24CDBF]
Трек 8 : извлечено точно (доверие 1) [671B2BA1]
Трек 9 : извлечено точно (доверие 1) [01F3EEFC]
Трек 10 : извлечено точно (доверие 1) [CA9F5FDE]
Трек 11 : извлечено точно (доверие 1) [2FBEB875]
Трек 12 : извлечено точно (доверие 1) [61C32385]
Трек 13 : извлечено точно (доверие 1) [DB83E002]
Трек 14 : извлечено точно (доверие 1) [7DF06523]

Все треки извлечены точно

Конец отчёта

==== Контрольная сумма отчёта F4484A884F084DA55F3301B45F8DCA7DAA518F8DB39124743DB2D6B784DBE492 ====
(.CUE)
REM GENRE Jazz
REM DATE 2009
REM DISCID BD12220D
REM COMMENT "ExactAudioCopy v1.0b1"
PERFORMER "Various"
TITLE "VA Jazz Kolo - Piano Kolo CD1"
FILE "Various - VA Jazz Kolo - Piano Kolo CD1.flac" WAVE
TRACK 01 AUDIO
TITLE "River of Your Love"
PERFORMER "Rodion Ivanov"
FLAGS DCP
INDEX 01 00:00:00
TRACK 02 AUDIO
TITLE "Orange Colored Snow"
PERFORMER "Nataliya Lebedeva Trio"
FLAGS DCP
INDEX 01 09:38:47
TRACK 03 AUDIO
TITLE "Stomatology"
PERFORMER "Oleksiy Saranchin"
FLAGS DCP
INDEX 01 17:21:56
TRACK 04 AUDIO
TITLE "Lonely Tune"
PERFORMER "Pavlo Shepeta"
FLAGS DCP
INDEX 01 24:36:68
TRACK 05 AUDIO
TITLE "Dances"
PERFORMER "Alexey Bogolyubov"
FLAGS DCP
INDEX 01 31:27:01
TRACK 06 AUDIO
TITLE "Some Day My Prince Will Come "
PERFORMER "Aleksandr Saratsky"
FLAGS DCP
INDEX 01 38:04:64
TRACK 07 AUDIO
TITLE "Black Brows / Chorni brovy "
PERFORMER "Aleksandr Saratsky"
FLAGS DCP
INDEX 01 42:20:66
TRACK 08 AUDIO
TITLE "The Road / V dorozi"
PERFORMER "Serhiy Shadurs‘kyy"
FLAGS DCP
INDEX 01 47:24:15
TRACK 09 AUDIO
TITLE "War "
PERFORMER "Viyna"
FLAGS DCP
INDEX 01 51:46:00
TRACK 10 AUDIO
TITLE "Morning After"
PERFORMER "Ilya Yeresko"
FLAGS DCP
INDEX 01 56:30:53
TRACK 11 AUDIO
TITLE "Winter Fall / Zymova osin‘ "
PERFORMER "Roksana Smirnova"
FLAGS DCP
INDEX 01 63:25:50
TRACK 12 AUDIO
TITLE "Ballad for E.M. / Balada dlja E.M. "
PERFORMER "Usejin Bekirov"
FLAGS DCP
INDEX 01 67:08:73
TRACK 13 AUDIO
TITLE "Invitation / Zaproshennja "
PERFORMER "Juriy Kuznjetsov"
FLAGS DCP
INDEX 01 73:43:72

REM GENRE Jazz
REM DATE 2009
REM DISCID B611F90E
REM COMMENT "ExactAudioCopy v1.0b1"
PERFORMER "Various"
TITLE "VA Jazz Kolo - Piano Kolo CD2"
FILE "Various - VA Jazz Kolo - Piano Kolo CD2.wav" WAVE
TRACK 01 AUDIO
TITLE "Namaljuy meni sichen‘... (Picture me January...) "
PERFORMER "Ihor Stetsjuk"
INDEX 01 00:00:00
TRACK 02 AUDIO
TITLE "Reflection"
PERFORMER "Anatoly Alexanian"
INDEX 00 05:22:43
INDEX 01 05:24:43
TRACK 03 AUDIO
TITLE "God Father's Mad Orchestra"
PERFORMER "Petro Pashkov"
INDEX 00 14:14:42
INDEX 01 14:16:42
TRACK 04 AUDIO
TITLE "Lament"
PERFORMER "Pavlo Lytvynenko"
INDEX 00 18:32:59
INDEX 01 18:34:59
TRACK 05 AUDIO
TITLE "Kokhanyy miy (The Man I Love) "
PERFORMER "V’jacheslav Poljans‘kyy"
INDEX 00 24:20:03
INDEX 01 24:22:03
TRACK 06 AUDIO
TITLE "Reflection of the Moon"
PERFORMER " Dara Navrods‘ka"
INDEX 00 26:38:53
INDEX 01 26:40:53
TRACK 07 AUDIO
TITLE "Hilochka (A Little Branch)"
PERFORMER "Serhiy Krasheninnikov"
INDEX 00 30:37:07
INDEX 01 30:39:07
TRACK 08 AUDIO
TITLE "Nich v Tunisi (A Night in Tunisia)"
PERFORMER "Tymur Poljans‘kyy"
INDEX 00 34:57:62
INDEX 01 34:59:62
TRACK 09 AUDIO
TITLE "Probachennja (Forgiveness)"
PERFORMER " Jevhen Derhunov"
INDEX 00 39:27:47
INDEX 01 39:29:47
TRACK 10 AUDIO
TITLE "Be-bop"
PERFORMER "Volodymyr Soljanyk"
INDEX 00 47:18:14
INDEX 01 47:20:14
TRACK 11 AUDIO
TITLE "Dreams"
PERFORMER " Volodymyr Prykhozhay"
INDEX 00 52:31:09
INDEX 01 52:33:09
TRACK 12 AUDIO
TITLE "Posmishka (Smile)"
PERFORMER " (Jefym Chupakhin, (Acoustic Quartet)"
INDEX 00 57:25:43
INDEX 01 57:27:43
TRACK 13 AUDIO
TITLE "Makhaon (Machaon)"
PERFORMER "Sergiy Davydov"
INDEX 00 62:05:19
INDEX 01 62:07:19
TRACK 14 AUDIO
TITLE "Coda"
PERFORMER " Juriy Shepeta"
INDEX 00 70:21:00
INDEX 01 70:23:00
Для початку просто констатуємо: студійна збірка проекту Джаз-Коло, присвячена українським піаністам, вийшла найбільш великою за обсягом – це, самі бачите, подвійна платівка. Нам здається, тут спрацювало одразу дві причини. Одна, очевидно, суто технічного характеру – у випадку з іншими інструментами (дивись збірки Sax Kolo, Bass Kolo, Guitar Kolo), мабуть, просто не вдалося назбирати таку кількість якісно записаного студійного матеріалу. Адже правило просте: один музикант – одна композиція. Ну а Piano Kolo свідчить, що джазові проекти у нас гуртуються, в основному, саме навколо фортепіано. Крім того – і це теж не новина – фахових піаністів просто фізично більше, ніж бас-гітаристів, саксофоністів тощо. Ну а друга причина має більш творчий характер: виявилося, що проекти наших піаністів охоплюють дуже широку палітру стилів – що приємно. Від поп-музики до авангарду, з масою яскравих відтінків між цими двома крайнощами – при тому, що тут представлено дійсно багато зовсім молодих музикантів. Вже говорилося, що всю серію студійних збірок серії Джаз-Коло задумано, як своєрідний довідник щодо українських джазових музикантів (хоч і не максимально повний – але максимально показовий). Ну а студійник Piano Kolo – чудова ілюстрація того, що український джаз не просто живе, а й жваво і цікаво розвивається.


Якщо Ви справді бажаєте підтримати українське - після прослуховування, якщо музика вам сподобалась, придбайте ліцензійний диск. Підтримаймо вітчизняних виконавців!


Срібний реліз (на рейтинг впливає 50% завантаженого)
 Трекер:    Зареєстрований   

Завантажити / скачати українську музику



відео для новачків



 Зареєстрований:   2016-03-26 19:50
 Розмір:   860 MB 
 Оцінка музики:   10/10 (Голосів: 3)
   
dr.zub 
Свій


З нами з: 30.09.11
Востаннє: 08.12.16
Повідомлень: 101

2016-03-26 23:42  
а є мп3 і якісь інші проекти Закуса?
Ваш часовий пояс: GMT + 2 Години

Нова тема   Відповісти