Завантажити та скачати торренти українською


Сергей Бабкин (Сергій Бабкін) - #неубивай (2016) [FLAC] | Rock / Art Rock

Нові коментарі

Нова тема   Відповісти
немає
Автор Повідомлення
kolpavel 
VIP


З нами з: 04.05.14
Востаннє: 11.12.16
Повідомлень: 1062

2016-03-25 17:50  
Сергей Бабкин (Сергій Бабкін) - #неубивай (2016) [FLAC] | Rock / Art Rock

Сергей Бабкин (Сергій Бабкін) - #неубивай (2016) [FLAC] | Rock / Art Rock


Стиль: Rock Art Rock
Країна, місто: Україна, Харків
Сайти: Офіційний сайт
Видавець: Lavina Music (№ за каталогом LM CD-634)
Виконавці:
Сергій Бабкін - вокал, акустична гітара, флейта, тексти.
Костянтин Шепеленко - ударні, перкусія.
Юхим Чупахін - клавіші, піаніно, рояль.
Станіслав Кононов - електрогітара, акустична гітара.
Сергій Савенко - кларнет, бас - кларнет, саксофон.
Ігор Фадєєв - контрабас, акустичний бас.
Антон Малишев - playback, інтро - шуми, електроніка (учасник групи з альбому «#невбиваних»).

Пісні:

    01. #пробач
    02. #верь
    03. #ангел
    04. #напишименя
    05. #больмоя
    06. #але
    07. #скупаямечта
    08. #полосы
    09. #магнит
    10. #метафора
    11. #агов
    12. #любимица
    13. #супутник
    14. #твояволя
    15. #блюзванатжівки
    16. #чудеса
    17. #бабє
    18. #неубивай


Тривалість: 01:12:06
Мова: українська (1,6,11,15,17), росiйська (2-5,7-11,13,14,16,18)
Аудіо-кодек: FLAC
Бітрейт: 615-898 кб/с
Джерело: трекер
Додаткова інформація:
EAC:
Exact Audio Copy V1.1 from 23. June 2015

EAC extraction logfile from 24. March 2016, 21:57

Сергей Бабкин / #неубивай

Used drive : HL-DT-STDVDRAM GSA-H42N Adapter: 1 ID: 0

Read mode : Secure
Utilize accurate stream : Yes
Defeat audio cache : Yes
Make use of C2 pointers : No

Read offset correction : 667
Overread into Lead-In and Lead-Out : No
Fill up missing offset samples with silence : Yes
Delete leading and trailing silent blocks : No
Null samples used in CRC calculations : Yes
Used interface : Native Win32 interface for Win NT & 2000
Gap handling : Appended to previous track

Used output format : User Defined Encoder
Selected bitrate : 1024 kBit/s
Quality : High
Add ID3 tag : No
Command line compressor : C:\Program Files\Exact Audio Copy\Flac\flac.exe
Additional command line options : -8 -e -V -T "ARTIST=%artist%" -T "TITLE=%title%" -T "ALBUM=%albumtitle%" -T "DATE=%year%" -T "TRACKNUMBER=%tracknr%" -T "GENRE=%genre%" -T "PERFORMER=%albuminterpret%" -T "COMPOSER=%composer%" %haslyrics%--tag-from-file=LYRICS="%lyricsfile%"%haslyrics% -T "ALBUMARTIST=%albumartist%" -T "DISCNUMBER=%cdnumber%" -T "TOTALDISCS=%totalcds%" -T "TOTALTRACKS=%numtracks%" -T "COMMENT=%comment%" %source% -o %dest%

TOC of the extracted CD

Track | Start | Length | Start sector | End sector
---------------------------------------------------------
1 | 0:00.00 | 3:37.73 | 0 | 16347
2 | 3:37.73 | 4:26.44 | 16348 | 36341
3 | 8:04.42 | 4:41.11 | 36342 | 57427
4 | 12:45.53 | 3:02.11 | 57428 | 71088
5 | 15:47.64 | 4:45.64 | 71089 | 92527
6 | 20:33.53 | 4:22.38 | 92528 | 112215
7 | 24:56.16 | 4:28.55 | 112216 | 132370
8 | 29:24.71 | 4:29.72 | 132371 | 152617
9 | 33:54.68 | 3:05.41 | 152618 | 166533
10 | 37:00.34 | 4:31.33 | 166534 | 186891
11 | 41:31.67 | 3:21.34 | 186892 | 202000
12 | 44:53.26 | 4:17.16 | 202001 | 221291
13 | 49:10.42 | 3:30.69 | 221292 | 237110
14 | 52:41.36 | 3:23.41 | 237111 | 252376
15 | 56:05.02 | 4:39.10 | 252377 | 273311
16 | 60:44.12 | 3:34.46 | 273312 | 289407
17 | 64:18.58 | 3:16.67 | 289408 | 304174
18 | 67:35.50 | 4:30.41 | 304175 | 324465

Track 1

Filename D:\Сергей Бабкин - #неубивай (2016)\01. #пробач.wav

Pre-gap length 0:00:02.00

Peak level 97.7 %
Extraction speed 2.5 X
Track quality 100.0 %
Test CRC 1B97597D
Copy CRC 1B97597D
Track not present in AccurateRip database
Copy OK

Track 2

Filename D:\Сергей Бабкин - #неубивай (2016)\02. #верь.wav

Pre-gap length 0:00:02.00

Peak level 97.7 %
Extraction speed 2.5 X
Track quality 99.9 %
Test CRC D3324609
Copy CRC D3324609
Track not present in AccurateRip database
Copy OK

Track 3

Filename D:\Сергей Бабкин - #неубивай (2016)\03. #ангел.wav

Pre-gap length 0:00:02.00

Peak level 97.7 %
Extraction speed 3.1 X
Track quality 100.0 %
Test CRC CB17BD1F
Copy CRC CB17BD1F
Track not present in AccurateRip database
Copy OK

Track 4

Filename D:\Сергей Бабкин - #неубивай (2016)\04. #напишименя.wav

Pre-gap length 0:00:02.00

Peak level 97.7 %
Extraction speed 3.0 X
Track quality 100.0 %
Test CRC B68C9CFA
Copy CRC B68C9CFA
Track not present in AccurateRip database
Copy OK

Track 5

Filename D:\Сергей Бабкин - #неубивай (2016)\05. #больмоя.wav

Pre-gap length 0:00:02.00

Peak level 97.7 %
Extraction speed 3.1 X
Track quality 99.9 %
Test CRC D63D6650
Copy CRC D63D6650
Track not present in AccurateRip database
Copy OK

Track 6

Filename D:\Сергей Бабкин - #неубивай (2016)\06. #але.wav

Pre-gap length 0:00:02.00

Peak level 97.7 %
Extraction speed 3.7 X
Track quality 100.0 %
Test CRC 013F28F5
Copy CRC 013F28F5
Track not present in AccurateRip database
Copy OK

Track 7

Filename D:\Сергей Бабкин - #неубивай (2016)\07. #скупаямечта.wav

Peak level 97.7 %
Extraction speed 3.8 X
Track quality 100.0 %
Test CRC D8EE353D
Copy CRC D8EE353D
Track not present in AccurateRip database
Copy OK

Track 8

Filename D:\Сергей Бабкин - #неубивай (2016)\08. #полосы.wav

Peak level 97.7 %
Extraction speed 4.1 X
Track quality 100.0 %
Test CRC 53AC2D00
Copy CRC 53AC2D00
Track not present in AccurateRip database
Copy OK

Track 9

Filename D:\Сергей Бабкин - #неубивай (2016)\09. #магнит.wav

Pre-gap length 0:00:02.00

Peak level 97.7 %
Extraction speed 3.8 X
Track quality 100.0 %
Test CRC 4AEB6FEA
Copy CRC 4AEB6FEA
Track not present in AccurateRip database
Copy OK

Track 10

Filename D:\Сергей Бабкин - #неубивай (2016)\10. #метафора.wav

Pre-gap length 0:00:02.00

Peak level 97.7 %
Extraction speed 4.2 X
Track quality 100.0 %
Test CRC 92B04F65
Copy CRC 92B04F65
Track not present in AccurateRip database
Copy OK

Track 11

Filename D:\Сергей Бабкин - #неубивай (2016)\11. #агов.wav

Pre-gap length 0:00:02.00

Peak level 97.7 %
Extraction speed 4.1 X
Track quality 100.0 %
Test CRC 8973C766
Copy CRC 8973C766
Track not present in AccurateRip database
Copy OK

Track 12

Filename D:\Сергей Бабкин - #неубивай (2016)\12. #любимица.wav

Pre-gap length 0:00:02.00

Peak level 97.7 %
Extraction speed 4.3 X
Track quality 100.0 %
Test CRC A931AAC7
Copy CRC A931AAC7
Track not present in AccurateRip database
Copy OK

Track 13

Filename D:\Сергей Бабкин - #неубивай (2016)\13. #супутник.wav

Pre-gap length 0:00:02.00

Peak level 97.7 %
Extraction speed 4.4 X
Track quality 100.0 %
Test CRC CF1BF018
Copy CRC CF1BF018
Track not present in AccurateRip database
Copy OK

Track 14

Filename D:\Сергей Бабкин - #неубивай (2016)\14. #твояволя.wav

Pre-gap length 0:00:02.00

Peak level 97.7 %
Extraction speed 4.6 X
Track quality 100.0 %
Test CRC 7A66EB04
Copy CRC 7A66EB04
Track not present in AccurateRip database
Copy OK

Track 15

Filename D:\Сергей Бабкин - #неубивай (2016)\15. #блюзванатжівки.wav

Pre-gap length 0:00:02.00

Peak level 97.7 %
Extraction speed 4.8 X
Track quality 100.0 %
Test CRC 720E5277
Copy CRC 720E5277
Track not present in AccurateRip database
Copy OK

Track 16

Filename D:\Сергей Бабкин - #неубивай (2016)\16. #чудеса.wav

Pre-gap length 0:00:02.00

Peak level 97.7 %
Extraction speed 4.8 X
Track quality 100.0 %
Test CRC 7FAAB887
Copy CRC 7FAAB887
Track not present in AccurateRip database
Copy OK

Track 17

Filename D:\Сергей Бабкин - #неубивай (2016)\17. #бабє.wav

Pre-gap length 0:00:02.00

Peak level 97.7 %
Extraction speed 4.0 X
Track quality 99.9 %
Test CRC 47A51267
Copy CRC 47A51267
Track not present in AccurateRip database
Copy OK

Track 18

Filename D:\Сергей Бабкин - #неубивай (2016)\18. #неубивай.wav

Pre-gap length 0:00:02.00

Peak level 97.7 %
Extraction speed 4.9 X
Track quality 100.0 %
Test CRC 1E418117
Copy CRC 1E418117
Track not present in AccurateRip database
Copy OK

None of the tracks are present in the AccurateRip database

No errors occurred

End of status report

---- CUETools DB Plugin V2.1.6

[CTDB TOCID: aE0VvoER6n.N2cItEF3x8W8Zi_8-] disk not present in database
Submit result: aE0VvoER6n.N2cItEF3x8W8Zi_8- has been uploaded

==== Log checksum 135736871F2630067908A04556291C1052E2030EEE66434F6697E24D519A6EC8 ====
(.CUE):
REM GENRE Rock
REM DATE 2016
REM DISCID 2110E612
REM COMMENT "ExactAudioCopy v1.1"
PERFORMER "Сергей Бабкин"
TITLE "#неубивай"
FILE "01. #пробач.wav" WAVE
TRACK 01 AUDIO
TITLE "#пробач"
PERFORMER "Сергей Бабкин"
INDEX 01 00:00:00
TRACK 02 AUDIO
TITLE "#верь"
PERFORMER "Сергей Бабкин"
INDEX 00 03:35:73
FILE "02. #верь.wav" WAVE
INDEX 01 00:00:00
TRACK 03 AUDIO
TITLE "#ангел"
PERFORMER "Сергей Бабкин"
INDEX 00 04:24:44
FILE "03. #ангел.wav" WAVE
INDEX 01 00:00:00
TRACK 04 AUDIO
TITLE "#напишименя"
PERFORMER "Сергей Бабкин"
INDEX 00 04:39:11
FILE "04. #напишименя.wav" WAVE
INDEX 01 00:00:00
TRACK 05 AUDIO
TITLE "#больмоя"
PERFORMER "Сергей Бабкин"
INDEX 00 03:00:11
FILE "05. #больмоя.wav" WAVE
INDEX 01 00:00:00
TRACK 06 AUDIO
TITLE "#але"
PERFORMER "Сергей Бабкин"
INDEX 00 04:43:64
FILE "06. #але.wav" WAVE
INDEX 01 00:00:00
FILE "07. #скупаямечта.wav" WAVE
TRACK 07 AUDIO
TITLE "#скупаямечта"
PERFORMER "Сергей Бабкин"
INDEX 01 00:00:00
FILE "08. #полосы.wav" WAVE
TRACK 08 AUDIO
TITLE "#полосы"
PERFORMER "Сергей Бабкин"
INDEX 01 00:00:00
TRACK 09 AUDIO
TITLE "#магнит"
PERFORMER "Сергей Бабкин"
INDEX 00 04:27:72
FILE "09. #магнит.wav" WAVE
INDEX 01 00:00:00
TRACK 10 AUDIO
TITLE "#метафора"
PERFORMER "Сергей Бабкин"
INDEX 00 03:03:41
FILE "10. #метафора.wav" WAVE
INDEX 01 00:00:00
TRACK 11 AUDIO
TITLE "#агов"
PERFORMER "Сергей Бабкин"
INDEX 00 04:29:33
FILE "11. #агов.wav" WAVE
INDEX 01 00:00:00
TRACK 12 AUDIO
TITLE "#любимица"
PERFORMER "Сергей Бабкин"
INDEX 00 03:19:34
FILE "12. #любимица.wav" WAVE
INDEX 01 00:00:00
TRACK 13 AUDIO
TITLE "#супутник"
PERFORMER "Сергей Бабкин"
INDEX 00 04:15:16
FILE "13. #супутник.wav" WAVE
INDEX 01 00:00:00
TRACK 14 AUDIO
TITLE "#твояволя"
PERFORMER "Сергей Бабкин"
INDEX 00 03:28:69
FILE "14. #твояволя.wav" WAVE
INDEX 01 00:00:00
TRACK 15 AUDIO
TITLE "#блюзванатжівки"
PERFORMER "Сергей Бабкин"
INDEX 00 03:21:41
FILE "15. #блюзванатжівки.wav" WAVE
INDEX 01 00:00:00
TRACK 16 AUDIO
TITLE "#чудеса"
PERFORMER "Сергей Бабкин"
INDEX 00 04:37:10
FILE "16. #чудеса.wav" WAVE
INDEX 01 00:00:00
TRACK 17 AUDIO
TITLE "#бабє"
PERFORMER "Сергей Бабкин"
INDEX 00 03:32:46
FILE "17. #бабє.wav" WAVE
INDEX 01 00:00:00
TRACK 18 AUDIO
TITLE "#неубивай"
PERFORMER "Сергей Бабкин"
INDEX 00 03:14:67
FILE "18. #неубивай.wav" WAVE
INDEX 01 00:00:00


Якщо Ви справді бажаєте підтримати українське - після прослуховування, якщо музика вам сподобалась, придбайте ліцензійний диск. Підтримаймо вітчизняних виконавців!
kolpavel 
VIP


З нами з: 04.05.14
Востаннє: 11.12.16
Повідомлень: 1062

2016-03-25 19:17  
MP3 - http://toloka.to/t72649#795301

Додано через 1 годину 12 хвилин 19 секунд:

Весь альбом ‪#‎неубивай‬ - спроба Сергія показати правдиве кіно про себе і направити промінь проектора людям, відобразити глибину відносин між закоханими людьми, відносини з сім'єю, своєю землею, світом, закарбувати мить щастя і гіркота від розставань і несправджених надій. Словами пісень Сергій просить не вбивати в собі найдорожче і найцінніше: віру, таланти, дружбу, почуття, мрії, - все те, що робить людину людиною і формує його власний світ.

‪Про пісні з нового альбому: #‎блюзвантажiвки‬: "На сьогоднішній день це, мабуть, перша пісня, яка була придумана не на гітарі, а на фортепіано. Вечір, зима ... . Відвіз машину в гараж і повертався додому. Іду і дивлюся на наші вікна, в яких горить світло . Це здорово, коли тебе чекають. і як противагу прийшли слова "За змістом працюючий, подалі від того, де горить теплий вогонь ... ". Пізніше зрозумів, що це слова від імені вантажівки. Людське життя, постійне накопичення багажу, і перевіз його з місця на місце, з міста в місто, хіба не схоже на життя вантажівки?" / С. Бабкін.
fergiron 
Новенький


З нами з: 18.01.12
Востаннє: 09.12.16
Повідомлень: 1

2016-04-02 18:03  
При спробі завантажити отримуємо таке повідомлення: "Неможливо додати passkey

Торрент не зареєстрований на трекері"
kolpavel 
VIP


З нами з: 04.05.14
Востаннє: 11.12.16
Повідомлень: 1062

2016-04-12 13:11  
Так і є - торрент не зареєстрований на трекері.
Vakula_S 
Новенький


З нами з: 16.03.10
Востаннє: 08.09.16
Повідомлень: 16

2016-07-23 20:03  
Так дайте покуштувати в кінці то кінців!
Robar III 
Попереджень: 2
Попереджень: 2 


З нами з: 18.08.11
Востаннє: 10.12.16
Повідомлень: 1950

2016-07-24 04:44  
Хай релізер нажме кнопку зареєструвати.
Ваш часовий пояс: GMT + 2 Години

Нова тема   Відповісти