Завантажити та скачати торренти українською


Білосніжка: Помста гномів / Mirror Mirror (2012) 720p Ukr/Eng | Sub Eng

Нові коментарі

Нова тема   Відповісти
Автор Повідомлення
Anonymous 







2016-03-25 17:24  
Білосніжка: Помста гномів / Mirror Mirror (2012) 720p Ukr/Eng | Sub Eng



Оригінальні обкладинки




повнорозмірні зображення відкриються по кліку (з натиснутим CTRL чи кліком середньою кнопкою мишки - у новій вкладці)



Жанр: пригодницький, комедія, драма, сімейний, фентезі
Країна: США, Канада



Кіностудія / кінокомпанія: Relativity Media, Yucaipa Films, Goldmann Pictures, Rat Entertainment, Misha Films, Mel's Cite du Cinema, Misher Films
Режисер: Тарсем Сінґ / Tarsem Singh
Актори: Джулія Робертс / Julia Roberts, Лілі Коллінз / Lily Collins, Армі Гаммер / Armie Hammer, Натан Лейн / Nathan Lane, Джордан Прентіс / Jordan Prentice, Марк Повінеллі / Mark Povinelli, Джо Ґноффо / Joe Gnoffo, Денні Bудбурн / Danny Woodburn, Себастіан Сарасено / Sebastian Saraceno, Мартін Клебба / Martin Klebba, Рональд Лі Кларк / Ronald Lee Clark, Роберт Еммс / Robert Emms, Маре Біннінґем / Mare Winningham, Майкл Лернер / Michael Lerner, Шон Бін / Sean Bean та ніші

Сюжет:
Зла Королева, яка мріє вийти заміж за красивого і багатого Принца, хитрістю виселяє з палацу Білосніжку і бере владу в свої руки. Але мила дівчина не загинула в темному дрімучому лісі, а зв'язалася з бандою гномів-розбійників. Разом вони помстяться Лиходійці!


Тривалість: 01:45:52
Якість: 720p [ріп від DON]
Відео:
кодек:
розмір кадру: 1280x692
бітрейт: 5500 кбіт/с

Аудіо # 1:
мова: українська
переклад: професійний дубльований | Tretyakoff production на замовлення Aurora Distribution
ролі дублювали: Джулія РобертсОлена Узлюк, Михайло Кришталь, Юрій Кудрявець, Олександр Погребняк, Микола Карцев, Мері Вінінґем/Тітка МарґаретОльга Радчук, Михайло Тишин та інші.
кодек: 2.0 (стерео)
бітрейт: 192 кб/с

Аудіо # 2:
мова: англійська
переклад: оригінал
кодек: 5.1
бітрейт: 1509 кбіт/с

Субтитри:
мова: англійська
тип: програмні (м'які)
формат: *.srt

Збережено оригінальні розділи, як на Blu-ray.
MediaInfo
Код:
Complete name               : Mirror Mirror (2012) [Ukr,Eng sub.Eng] 720p [Hurtom&HDClub].mkv
Format                      : Matroska
Format version              : Version 4 / Version 2
File size                   : 5.28 GiB
Duration                    : 1h 45mn
Overall bit rate            : 7 135 Kbps
Movie name                  : Білосніжка: Помста гномів / Mirror Mirror (2012) [Ukr,Eng sub.Eng] 720p [Hurtom&HDClub] by igor911
Encoded date                : UTC 2016-03-25 07:11:27
Writing application         : mkvmerge v8.9.0 ('Father Daughter') 64bit
Writing library             : libebml v1.3.3 + libmatroska v1.4.4
Attachements                : cover.jpg
DURATION                    : 01:45:52.320000000
NUMBER_OF_FRAMES            : 198510
NUMBER_OF_BYTES             : 152455680
_STATISTICS_WRITING_APP     : mkvmerge v8.9.0 ('Father Daughter') 64bit
_STATISTICS_WRITING_DATE_UT : 2016-03-25 07:11:27
_STATISTICS_TAGS            : BPS DURATION NUMBER_OF_FRAMES NUMBER_OF_BYTES

Video
ID                          : 1
Format                      : AVC
Format/Info                 : Advanced Video Codec
Format profile              : [email protected]
Format settings, CABAC      : Yes
Format settings, ReFrames   : 9 frames
Codec ID                    : V_MPEG4/ISO/AVC
Duration                    : 1h 45mn
Bit rate                    : 5 500 Kbps
Width                       : 1 280 pixels
Height                      : 692 pixels
Display aspect ratio        : 1.85:1
Frame rate mode             : Constant
Frame rate                  : 23.976 fps
Color space                 : YUV
Chroma subsampling          : 4:2:0
Bit depth                   : 8 bits
Scan type                   : Progressive
Bits/(Pixel*Frame)          : 0.259
Stream size                 : 3.91 GiB (74%)
Title                       : Білосніжка: Помста гномів / Mirror Mirror (2012) 720p [DON]
Writing library             : core 116 r2057 0ba8a9c
Encoding settings           : cabac=1 / ref=9 / deblock=1:-3:-3 / analyse=0x3:0x133 / me=umh / subme=10 / psy=1 / psy_rd=1.00:0.00 / mixed_ref=1 / me_range=32 / chroma_me=1 / trellis=2 / 8x8dct=1 / cqm=0 / deadzone=21,11 / fast_pskip=0 / chroma_qp_offset=-2 / threads=14 / sliced_threads=0 / nr=0 / decimate=0 / interlaced=0 / bluray_compat=0 / constrained_intra=0 / bframes=7 / b_pyramid=2 / b_adapt=2 / b_bias=0 / direct=3 / weightb=1 / open_gop=0 / weightp=2 / keyint=250 / keyint_min=23 / scenecut=40 / intra_refresh=0 / rc_lookahead=40 / rc=2pass / mbtree=0 / bitrate=5500 / ratetol=1.0 / qcomp=0.65 / qpmin=0 / qpmax=40 / qpstep=4 / cplxblur=20.0 / qblur=0.5 / vbv_maxrate=50000 / vbv_bufsize=50000 / nal_hrd=none / ip_ratio=1.25 / pb_ratio=1.25 / aq=1:0.65
Language                    : English
Default                     : Yes
Forced                      : No
DURATION                    : 01:45:52.346000000
NUMBER_OF_FRAMES            : 152304
NUMBER_OF_BYTES             : 4312167344
_STATISTICS_WRITING_APP     : mkvmerge v8.9.0 ('Father Daughter') 64bit
_STATISTICS_WRITING_DATE_UT : 2016-03-25 07:11:27
_STATISTICS_TAGS            : BPS DURATION NUMBER_OF_FRAMES NUMBER_OF_BYTES

Audio #1
ID                          : 2
Format                      : AC-3
Format/Info                 : Audio Coding 3
Mode extension              : CM (complete main)
Format settings, Endianness : Big
Codec ID                    : A_AC3
Duration                    : 1h 45mn
Bit rate mode               : Constant
Bit rate                    : 192 Kbps
Channel(s)                  : 2 channels
Channel positions           : Front: L R
Sampling rate               : 48.0 KHz
Compression mode            : Lossy
Stream size                 : 145 MiB (3%)
Title                       : Dub [Tretyakoff production] 2.0 192 kbps [Hurtom-karvai0]
Language                    : Ukrainian
Default                     : Yes
Forced                      : No

Audio #2
ID                          : 3
Format                      :
Format/Info                 : Digital Theater Systems
Mode                        : 16
Format settings, Endianness : Big
Codec ID                    : A_DTS
Duration                    : 1h 45mn
Bit rate mode               : Constant
Bit rate                    : 1 509 Kbps
Channel(s)                  : 6 channels
Channel positions           : Front: L C R, Side: L R, LFE
Sampling rate               : 48.0 KHz
Bit depth                   : 24 bits
Compression mode            : Lossy
Delay relative to video     : 11ms
Stream size                 : 1.12 GiB (21%)
Title                       : Original 5.1 1510 Kbps
Language                    : English
Default                     : No
Forced                      : No

Text
ID                          : 4
Format                      : UTF-8
Codec ID                    : S_TEXT/UTF8
Codec ID/Info               : UTF-8 Plain Text
Language                    : English
Default                     : No
Forced                      : No

Menu
00:00:00.000                : en:00:00:00.000
00:03:51.982                : en:00:03:51.982
00:07:54.891                : en:00:07:54.891
00:11:39.574                : en:00:11:39.574
00:14:01.924                : en:00:14:01.924
00:18:44.874                : en:00:18:44.874
00:23:12.433                : en:00:23:12.433
00:26:26.418                : en:00:26:26.418
00:31:15.165                : en:00:31:15.165
00:34:40.370                : en:00:34:40.370
00:38:48.493                : en:00:38:48.493
00:45:02.992                : en:00:45:02.992
00:47:54.288                : en:00:47:54.288
00:50:56.845                : en:00:50:56.845
00:55:36.625                : en:00:55:36.625
00:59:01.413                : en:00:59:01.413
01:02:56.982                : en:01:02:56.982
01:07:48.731                : en:01:07:48.731
01:13:21.564                : en:01:13:21.564
01:16:34.590                : en:01:16:34.590
01:21:38.352                : en:01:21:38.352
01:27:50.056                : en:01:27:50.056
01:31:38.034                : en:01:31:38.034
01:36:01.339                : en:01:36:01.339
Порівняння з оригіналом

Оригінал <----------> Ріп






Джерела та подяки: &
українська доріжка - karvai0; фільмографії акторів та інформація про озвучення - Віктор (всі - Гуртом).


ЗАЛИШАЙТЕСЬ ЯКОМОГА ДОВШЕ НА РОЗДАЧІ!
СКАЧАВ САМ - ДАЙ СКАЧАТИ ІНШИМ


 Трекер:    Зареєстрований   

Завантажити / скачати фільм українською



відео для новачків



 Зареєстрований:   2016-03-25 17:24
 Розмір:   5.28 GB 
 Оцінка фільму:   3.6/10 (Голосів: 15)
   
Інші релізи
Ваш часовий пояс: GMT + 2 Години

Нова тема   Відповісти