Завантажити та скачати торренти українською


Щоденник слабака. Трилогія / Diary of a Wimpy Kid. Trilogy (2010-2012) 720p Ukr/Eng | Sub Ukr/Eng

Нові коментарі

Нова тема   Відповісти
Автор Повідомлення
Anonymous 







2016-03-22 15:05  
Щоденник слабака. Трилогія / Diary of a Wimpy Kid. Trilogy (2010-2012) 720p Ukr/Eng | Sub Ukr/Eng

Щоденник слабака. Трилогія / Diary of a Wimpy Kid. Trilogy (2010-2012) 720p Ukr/Eng | Sub Ukr/Eng


Жанр: комедія, сімейний
Країна: США
Щоденник слабака / Diary of a Wimpy Kid (2010) 720p Ukr/Eng | Sub Eng

Щоденник слабака / Diary of a Wimpy Kid (2010) 720p Ukr/Eng | Sub Eng



Альтернативний та українізований постери




повнорозмірні зображення відкриються по кліку (з натиснутим CTRL чи кліком середньою кнопкою мишки - у новій вкладці)


Жанр: комедія, сімейний
Країна: США



Кінокомпанія: Color Force, Dayday Films, Dune Entertainment III
Режисер: Тор Фройденталь / Thor Freudenthal
Актори: Захарі Ґордон / Zachary Gordon, Роберт Капрон / Robert Capron, Хлоя Ґрейс Морец / Chloë Grace Moretz, Рейчел Гарріс / Rachael Harris, Стів Зан / Steve Zahn, Коннор Філдінґ / Connor Fielding, Овен Філдінґ / Owen Fielding, Девон Бостік / Devon Bostick, Каран Брер / Karan Brar, Ґрейсон Расселл / Grayson Russell та інші

Сюжет:
Екранізація популярної серії книг Джеффа Кінні, оповідає про пригоди цілком собі середнього учня такої ж середньої школи, Ґреґа Геффлі і його найкращого друга Роулі Джефферсона...


Рейтинг MPAA: PG - рекомендується присутність батьків
Вікова категорія: 6+

Тривалість: 01:32:33
Якість: 720p
Відео:
кодек:
розмір кадру: 1280 х 688
бітрейт: 5246 кбіт/с

Аудіо # 1:
мова: українська
переклад: багатоголосий закадровий
ролі озвучили: Андрій Твердак, Юлія Перенчук, Ніна Касторф і Лідія Муращенко
кодек: 2.0
бітрейт: 192 кбіт/с

Аудіо # 2:
мова: англійська
переклад: оригінал
кодек: 5.1
бітрейт: 1509 кбіт/с

Субтитри:
мова: англійська
тип: програмні (м'які)
формат: *.srt

Збережено оригінальні розділи, як на Blu-ray.
MediaInfo
Код:
Complete name               : Diary of a Wimpy Kid (2010) [Ukr,Eng sub.Eng] 720p [Hurtom].mkv
Format                      : Matroska
Format version              : Version 4 / Version 2
File size                   : 4.49 GiB
Duration                    : 1h 32mn
Overall bit rate            : 6 950 Kbps
Movie name                  : Щоденник слабака / Diary of a Wimpy Kid (2010) [Ukr,Eng sub.Eng] 720p [Hurtom-igor911]
Encoded date                : UTC 2016-03-21 16:30:14
Writing application         : mkvmerge v8.9.0 ('Father Daughter') 64bit
Writing library             : libebml v1.3.3 + libmatroska v1.4.4
Attachements                : cover.jpg
DURATION                    : 01:32:33.600000000
NUMBER_OF_FRAMES            : 173550
NUMBER_OF_BYTES             : 133286400
_STATISTICS_WRITING_APP     : mkvmerge v8.9.0 ('Father Daughter') 64bit
_STATISTICS_WRITING_DATE_UT : 2016-03-21 16:30:14
_STATISTICS_TAGS            : BPS DURATION NUMBER_OF_FRAMES NUMBER_OF_BYTES

Video
ID                          : 1
Format                      : AVC
Format/Info                 : Advanced Video Codec
Format profile              : [email protected]
Format settings, CABAC      : Yes
Format settings, ReFrames   : 5 frames
Codec ID                    : V_MPEG4/ISO/AVC
Duration                    : 1h 32mn
Bit rate                    : 5 246 Kbps
Width                       : 1 280 pixels
Height                      : 688 pixels
Display aspect ratio        : 1.85:1
Frame rate mode             : Constant
Frame rate                  : 23.976 fps
Color space                 : YUV
Chroma subsampling          : 4:2:0
Bit depth                   : 8 bits
Scan type                   : Progressive
Bits/(Pixel*Frame)          : 0.248
Stream size                 : 3.30 GiB (74%)
Title                       : Щоденник слабака / Diary of a Wimpy Kid (2010) 720p [MACHD]
Writing library             : core 104 r1677 19df41a
Encoding settings           : cabac=1 / ref=5 / deblock=1:0:0 / analyse=0x3:0x113 / me=umh / subme=7 / psy=1 / psy_rd=1.00:0.00 / mixed_ref=1 / me_range=16 / chroma_me=1 / trellis=1 / 8x8dct=1 / cqm=0 / deadzone=21,11 / fast_pskip=1 / chroma_qp_offset=-2 / threads=12 / sliced_threads=0 / nr=0 / decimate=1 / interlaced=0 / constrained_intra=0 / bframes=3 / b_pyramid=2 / b_adapt=1 / b_bias=0 / direct=1 / weightb=1 / open_gop=0 / weightp=2 / keyint=250 / keyint_min=23 / scenecut=40 / intra_refresh=0 / rc_lookahead=40 / rc=2pass / mbtree=1 / bitrate=5246 / ratetol=1.0 / qcomp=0.60 / qpmin=10 / qpmax=51 / qpstep=4 / cplxblur=20.0 / qblur=0.5 / ip_ratio=1.40 / aq=1:1.00
Language                    : English
Default                     : Yes
Forced                      : No
DURATION                    : 01:32:33.590000000
NUMBER_OF_FRAMES            : 133153
NUMBER_OF_BYTES             : 3641710010
_STATISTICS_WRITING_APP     : mkvmerge v8.9.0 ('Father Daughter') 64bit
_STATISTICS_WRITING_DATE_UT : 2016-03-21 16:30:14
_STATISTICS_TAGS            : BPS DURATION NUMBER_OF_FRAMES NUMBER_OF_BYTES

Audio #1
ID                          : 2
Format                      : AC-3
Format/Info                 : Audio Coding 3
Mode extension              : CM (complete main)
Format settings, Endianness : Big
Codec ID                    : A_AC3
Duration                    : 1h 32mn
Bit rate mode               : Constant
Bit rate                    : 192 Kbps
Channel(s)                  : 2 channels
Channel positions           : Front: L R
Sampling rate               : 48.0 KHz
Compression mode            : Lossy
Stream size                 : 127 MiB (3%)
Title                       : MVO [TET] 2.0 192 kbps [Hurtom-Gelios,POMEO]
Language                    : Ukrainian
Default                     : Yes
Forced                      : No

Audio #2
ID                          : 3
Format                      :
Format/Info                 : Digital Theater Systems
Mode                        : 16
Format settings, Endianness : Big
Codec ID                    : A_DTS
Duration                    : 1h 32mn
Bit rate mode               : Constant
Bit rate                    : 1 509 Kbps
Channel(s)                  : 6 channels
Channel positions           : Front: L C R, Side: L R, LFE
Sampling rate               : 48.0 KHz
Bit depth                   : 24 bits
Compression mode            : Lossy
Stream size                 : 999 MiB (22%)
Title                       : Original 5.1 1510 kbps
Language                    : English
Default                     : No
Forced                      : No

Text
ID                          : 4
Format                      : UTF-8
Codec ID                    : S_TEXT/UTF8
Codec ID/Info               : UTF-8 Plain Text
Language                    : English
Default                     : No
Forced                      : No

Menu
00:00:00.000                : en:00:00:00.000
00:06:12.330                : en:00:06:12.330
00:10:05.063                : en:00:10:05.063
00:15:01.484                : en:00:15:01.484
00:19:08.230                : en:00:19:08.230
00:22:45.698                : en:00:22:45.698
00:28:28.081                : en:00:28:28.081
00:31:24.633                : en:00:31:24.633
00:36:44.285                : en:00:36:44.285
00:40:40.396                : en:00:40:40.396
00:45:12.043                : en:00:45:12.043
00:48:29.907                : en:00:48:29.907
00:51:43.892                : en:00:51:43.892
00:54:01.947                : en:00:54:01.947
00:59:20.932                : en:00:59:20.932
01:02:13.438                : en:01:02:13.438
01:06:06.546                : en:01:06:06.546
01:09:32.043                : en:01:09:32.043
01:12:35.101                : en:01:12:35.101
01:15:46.542                : en:01:15:46.542
01:18:47.514                : en:01:18:47.514
01:20:45.049                : en:01:20:45.049
01:25:30.250                : en:01:25:30.250
01:26:43.615                : en:01:26:43.615


Джерела та подяки: &
українська доріжка - Gelios - зведення, POMEO - запис з ТБ; українізований постер - Gelios

Щоденник слабака 2: Правила Родріка / Diary of a Wimpy Kid: Rodrick Rules (2011) 720p Ukr/Eng | Sub Eng

Щоденник слабака 2: Правила Родріка / Diary of a Wimpy Kid: Rodrick Rules (2011) 720p Ukr/Eng | Sub Eng



Альтернативний постер


повнорозмірні зображення відкриються по кліку (з натиснутим CTRL чи кліком середньою кнопкою мишки - у новій вкладці)


Жанр: комедія, сімейний
Країна: США



Кінокомпанія: Fox 2000 Pictures, Color Force, Dune Entertainment
Режисер: Девід Баверс / David Bowers
Актори: Захарі Ґордон / Zachary Gordon, Роберт Капрон / Robert Capron, Девон Бостік / Devon Bostick, Рейчел Гарріс / Rachael Harris, Стів Зан / Steve Zahn, Пейтон Ліст / Peyton List, Каран Брер / Karan Brar, Лейн МакНіл / Laine MacNeil, Ґрейсон Рассел / Grayson Russell, Френ Кранц / Fran Kranz, Ендрю МакНі / Andrew McNee та інші

Сюжет:
Ґреґ Геффлі повертається після шкільних канікул, позбувшись «сирного прокляття» і як ніколи впевнений у собі. Однак справи вдома йдуть геть погано, особливо зі старшим братом, Родріком. Ґреґу вже починає здаватися, що є речі страшніші, ніж середня школа, - його сім'я!


Рейтинг MPAA: PG - рекомендується присутність батьків
Вікова категорія: 6+

Тривалість: 01:39:33
Якість: 720p
Відео:
кодек:
розмір кадру: 1280 х 544
бітрейт: 8560 кбіт/с [crf=17]

Аудіо # 1:
мова: українська
переклад: професійний дубльований
кодек: 2.0
бітрейт: 192 кбіт/с

Аудіо # 2:
мова: англійська
переклад: оригінал
кодек: 5.1
бітрейт: 1509 кбіт/с

Аудіо # 3:
мова: англійська
переклад: коментарі
кодек: 2.0
бітрейт: 224 кбіт/с

Субтитри:
мова: англійська
тип: програмні (м'які)
формат: *.srt

Збережено оригінальні розділи, як на Blu-ray.
MediaInfo
Код:
Complete name               : Diary of a Wimpy Kid. Rodrick Rules (2011) [Ukr,Eng sub.Eng] 720p [Hurtom&HDClub].mkv
Format                      : Matroska
Format version              : Version 4 / Version 2
File size                   : 7.44 GiB
Duration                    : 1h 39mn
Overall bit rate            : 10.7 Mbps
Movie name                  : Щоденник слабака 2: Правила Родріка / Diary of a Wimpy Kid. Rodrick Rules (2011) [Ukr,Eng sub.Eng] 720p [Hurtom&HDClub] by igor911
Encoded date                : UTC 2016-03-21 18:08:46
Writing application         : mkvmerge v8.9.0 ('Father Daughter') 64bit
Writing library             : libebml v1.3.3 + libmatroska v1.4.4
Attachements                : cover.jpg
DURATION                    : 01:39:33.664000000
NUMBER_OF_FRAMES            : 186677
NUMBER_OF_BYTES             : 143367936
_STATISTICS_WRITING_APP     : mkvmerge v8.9.0 ('Father Daughter') 64bit
_STATISTICS_WRITING_DATE_UT : 2016-03-21 18:08:46
_STATISTICS_TAGS            : BPS DURATION NUMBER_OF_FRAMES NUMBER_OF_BYTES

Video
ID                          : 1
Format                      : AVC
Format/Info                 : Advanced Video Codec
Format profile              : [email protected]
Format settings, CABAC      : Yes
Format settings, ReFrames   : 11 frames
Codec ID                    : V_MPEG4/ISO/AVC
Duration                    : 1h 39mn
Bit rate                    : 8 560 Kbps
Width                       : 1 280 pixels
Height                      : 544 pixels
Display aspect ratio        : 2.35:1
Frame rate mode             : Constant
Frame rate                  : 23.976 fps
Color space                 : YUV
Chroma subsampling          : 4:2:0
Bit depth                   : 8 bits
Scan type                   : Progressive
Bits/(Pixel*Frame)          : 0.513
Stream size                 : 5.95 GiB (80%)
Title                       : Щоденник слабака 2: Правила Родріка / Diary of a Wimpy Kid: Rodrick Rules (2011) 720p [EbP]
Writing library             : core 116 r2019 9cc407d
Encoding settings           : cabac=1 / ref=11 / deblock=1:-3:-3 / analyse=0x3:0x113 / me=tesa / subme=10 / psy=1 / psy_rd=1.20:0.00 / mixed_ref=1 / me_range=16 / chroma_me=1 / trellis=2 / 8x8dct=1 / cqm=0 / deadzone=21,11 / fast_pskip=0 / chroma_qp_offset=-2 / threads=6 / sliced_threads=0 / nr=0 / decimate=0 / interlaced=0 / bluray_compat=0 / constrained_intra=0 / bframes=8 / b_pyramid=2 / b_adapt=2 / b_bias=0 / direct=3 / weightb=1 / open_gop=0 / weightp=2 / keyint=250 / keyint_min=23 / scenecut=40 / intra_refresh=0 / rc=crf / mbtree=0 / crf=17.0 / qcomp=0.60 / qpmin=0 / qpmax=69 / qpstep=4 / ip_ratio=1.40 / pb_ratio=1.30 / aq=1:0.65
Language                    : English
Default                     : Yes
Forced                      : No
DURATION                    : 01:39:33.593000000
NUMBER_OF_FRAMES            : 143223
NUMBER_OF_BYTES             : 6547878220
_STATISTICS_WRITING_APP     : mkvmerge v8.9.0 ('Father Daughter') 64bit
_STATISTICS_WRITING_DATE_UT : 2016-03-21 18:08:46
_STATISTICS_TAGS            : BPS DURATION NUMBER_OF_FRAMES NUMBER_OF_BYTES

Audio #1
ID                          : 2
Format                      : AC-3
Format/Info                 : Audio Coding 3
Mode extension              : CM (complete main)
Format settings, Endianness : Big
Codec ID                    : A_AC3
Duration                    : 1h 39mn
Bit rate mode               : Constant
Bit rate                    : 192 Kbps
Channel(s)                  : 2 channels
Channel positions           : Front: L R
Sampling rate               : 48.0 KHz
Compression mode            : Lossy
Stream size                 : 137 MiB (2%)
Title                       : Dub [TET] 2.0 192 kbps [Hurtom-ninenine,Neytreenor]
Language                    : Ukrainian
Default                     : Yes
Forced                      : No

Audio #2
ID                          : 3
Format                      :
Format/Info                 : Digital Theater Systems
Mode                        : 16
Format settings, Endianness : Big
Codec ID                    : A_DTS
Duration                    : 1h 39mn
Bit rate mode               : Constant
Bit rate                    : 1 509 Kbps
Channel(s)                  : 6 channels
Channel positions           : Front: L C R, Side: L R, LFE
Sampling rate               : 48.0 KHz
Bit depth                   : 24 bits
Compression mode            : Lossy
Stream size                 : 1.05 GiB (14%)
Title                       : Original 5.1 1509 kbps
Language                    : English
Default                     : No
Forced                      : No

Audio #3
ID                          : 4
Format                      : AC-3
Format/Info                 : Audio Coding 3
Mode extension              : CM (complete main)
Format settings, Endianness : Big
Codec ID                    : A_AC3
Duration                    : 1h 39mn
Bit rate mode               : Constant
Bit rate                    : 224 Kbps
Channel(s)                  : 2 channels
Channel positions           : Front: L R
Sampling rate               : 48.0 KHz
Compression mode            : Lossy
Stream size                 : 160 MiB (2%)
Title                       : Commentary 2.0 224 kbps
Language                    : English
Default                     : No
Forced                      : No

Text
ID                          : 5
Format                      : UTF-8
Codec ID                    : S_TEXT/UTF8
Codec ID/Info               : UTF-8 Plain Text
Language                    : English
Default                     : No
Forced                      : No

Menu
00:00:00.000                : en:00:00:00.000
00:09:01.624                : en:00:09:01.624
00:09:31.988                : en:00:09:31.988
00:12:16.069                : en:00:12:16.069
00:14:14.687                : en:00:14:14.687
00:17:10.780                : en:00:17:10.780
00:19:58.697                : en:00:19:58.697
00:24:10.741                : en:00:24:10.741
00:28:00.178                : en:00:28:00.178
00:36:13.797                : en:00:36:13.797
00:41:47.714                : en:00:41:47.714
00:46:37.545                : en:00:46:37.545
00:50:34.865                : en:00:50:34.865
00:54:10.497                : en:00:54:10.497
00:57:14.181                : en:00:57:14.181
01:01:52.042                : en:01:01:52.042
01:04:19.064                : en:01:04:19.064
01:08:09.043                : en:01:08:09.043
01:12:24.674                : en:01:12:24.674
01:16:14.779                : en:01:16:14.779
01:20:05.092                : en:01:20:05.092
01:25:53.273                : en:01:25:53.273
01:29:43.503                : en:01:29:43.503
01:33:11.878                : en:01:33:11.878


Джерела та подяки: &
українська доріжка - ninenine - зведення, Neytreenor - запис з ТБ

Щоденник слабака 3: Собачі дні / Diary of a Wimpy Kid: Dog Days (2012) 720p Ukr/Eng | Sub Ukr/Eng

Щоденник слабака 3: Собачі дні / Diary of a Wimpy Kid: Dog Days (2012) 720p Ukr/Eng | Sub Ukr/Eng



Жанр: комедія, сімейний
Країна: США



Кінокомпанія: 20th Century Fox Film Corporation, Color Force, Fox 2000 Pictures, TCF Vancouver Productions
Режисер: Девід Баверс / David Bowers
Актори: Захарі Ґордон / Zachary Gordon, Роберт Капрон / Robert Capron, Девон Бостік / Devon Bostick, Рейчел Гарріс / Rachael Harris, Стів Зан / Steve Zahn, Пейтон Ліст / Peyton List, Каран Брер / Karan Brar, Лейн МакНіл / Laine MacNeil, Ґрейсон Рассел / Grayson Russell, Френ Кранц / Fran Kranz, Ендрю МакНі / Andrew McNee та інші

Сюжет:
Школа закінчилася і Грег готовий до теплого літа. Точніше був готовий до того моменту, поки всі його плани не пішли шкереберть. Чим же він тепер буде займатися всі канікули?


Рейтинг MPAA: PG - рекомендується присутність батьків
Вікова категорія: 6+

Тривалість: 01:33:57
Якість: 720p
Відео:
кодек:
розмір кадру: 1280 х 544
бітрейт: 9500 кбіт/с

Аудіо # 1:
мова: українська
переклад: професійний дубльований
кодек: 2.0
бітрейт: 192 кбіт/с

Аудіо # 2:
мова: англійська
переклад: оригінал
кодек: 5.1
бітрейт: 1509 кбіт/с

Субтитри # 1:
мова: українська
тип: програмні (м'які)
формат: *.srt

Субтитри # 2:
мова: англійська
тип: програмні (м'які)
формат: *.srt

Збережено оригінальні розділи, як на Blu-ray.
MediaInfo
Код:
Complete name               : Diary of a Wimpy Kid. Dog Days (2012) [Ukr,Eng sub.Ukr,Eng] 720p [Hurtom].mkv
Format                      : Matroska
Format version              : Version 4 / Version 2
File size                   : 7.34 GiB
Duration                    : 1h 33mn
Overall bit rate            : 11.2 Mbps
Movie name                  : Щоденник слабака 3: Cобачі дні / Diary of a Wimpy Kid: Dog Days (2012) [Ukr,Eng sub.Ukr,Eng] 720p [Hurtom-igor911]
Encoded date                : UTC 2016-03-27 10:17:34
Writing application         : mkvmerge v9.0.0 ('Power to progress') 64bit
Writing library             : libebml v1.3.3 + libmatroska v1.4.4
Attachements                : cover.jpg

Video
ID                          : 1
Format                      : AVC
Format/Info                 : Advanced Video Codec
Format profile              : [email protected]
Format settings, CABAC      : Yes
Format settings, ReFrames   : 12 frames
Codec ID                    : V_MPEG4/ISO/AVC
Duration                    : 1h 33mn
Bit rate                    : 9 500 Kbps
Width                       : 1 280 pixels
Height                      : 544 pixels
Display aspect ratio        : 2.35:1
Frame rate mode             : Constant
Frame rate                  : 23.976 (24000/1001) fps
Color space                 : YUV
Chroma subsampling          : 4:2:0
Bit depth                   : 8 bits
Scan type                   : Progressive
Bits/(Pixel*Frame)          : 0.569
Stream size                 : 6.22 GiB (85%)
Title                       : Щоденник слабака 3: Cобачі дні / Diary of a Wimpy Kid: Dog Days (2012) 720p [IRONCLUB]
Writing library             : core 129 r2230 1cffe9f
Encoding settings           : cabac=1 / ref=12 / deblock=1:-3:-3 / analyse=0x3:0x113 / me=umh / subme=11 / psy=1 / psy_rd=1.20:0.00 / mixed_ref=1 / me_range=48 / chroma_me=1 / trellis=2 / 8x8dct=1 / cqm=0 / deadzone=21,11 / fast_pskip=0 / chroma_qp_offset=-2 / threads=12 / lookahead_threads=2 / sliced_threads=0 / nr=0 / decimate=1 / interlaced=0 / bluray_compat=0 / constrained_intra=0 / bframes=9 / b_pyramid=2 / b_adapt=2 / b_bias=0 / direct=3 / weightb=1 / open_gop=0 / weightp=2 / keyint=250 / keyint_min=23 / scenecut=40 / intra_refresh=0 / rc_lookahead=60 / rc=2pass / mbtree=0 / bitrate=9500 / ratetol=1.0 / qcomp=0.75 / qpmin=0 / qpmax=69 / qpstep=4 / cplxblur=20.0 / qblur=0.5 / vbv_maxrate=50000 / vbv_bufsize=62500 / nal_hrd=none / ip_ratio=1.30 / pb_ratio=1.10 / aq=1:0.85
Language                    : English
Default                     : Yes
Forced                      : No
Color range                 : Limited
Matrix coefficients         : BT.709

Audio #1
ID                          : 2
Format                      : AC-3
Format/Info                 : Audio Coding 3
Mode extension              : CM (complete main)
Format settings, Endianness : Big
Codec ID                    : A_AC3
Duration                    : 1h 33mn
Bit rate mode               : Constant
Bit rate                    : 192 Kbps
Channel(s)                  : 2 channels
Channel positions           : Front: L R
Sampling rate               : 48.0 KHz
Frame rate                  : 31.250 fps (1536 spf)
Compression mode            : Lossy
Stream size                 : 129 MiB (2%)
Title                       : Dub [TET] 2.0 192 kbps [Hurtom-igor911,Neytreenor]
Language                    : Ukrainian
Default                     : Yes
Forced                      : No

Audio #2
ID                          : 3
Format                      :
Format/Info                 : Digital Theater Systems
Mode                        : 16
Format settings, Endianness : Big
Codec ID                    : A_DTS
Duration                    : 1h 33mn
Bit rate mode               : Constant
Bit rate                    : 1 509 Kbps
Channel(s)                  : 6 channels
Channel positions           : Front: L C R, Side: L R, LFE
Sampling rate               : 48.0 KHz
Frame rate                  : 93.750 fps (512 spf)
Bit depth                   : 24 bits
Compression mode            : Lossy
Stream size                 : 1 014 MiB (13%)
Title                       : Original 5.1 1509 kbps
Language                    : English
Default                     : No
Forced                      : No

Text #1
ID                          : 4
Format                      : UTF-8
Codec ID                    : S_TEXT/UTF8
Codec ID/Info               : UTF-8 Plain Text
Duration                    : 1h 33mn
Bit rate                    : 75 bps
Count of elements           : 1137
Stream size                 : 51.5 KiB (0%)
Title                       : Ukr full [Cepгiй Вaжнeнкo, DDS]
Language                    : Ukrainian
Default                     : No
Forced                      : No

Text #2
ID                          : 5
Format                      : UTF-8
Codec ID                    : S_TEXT/UTF8
Codec ID/Info               : UTF-8 Plain Text
Duration                    : 1h 27mn
Bit rate                    : 56 bps
Count of elements           : 1109
Stream size                 : 36.0 KiB (0%)
Title                       : Eng full
Language                    : English
Default                     : No
Forced                      : No

Menu
00:00:00.000                : en:00:00:00.000
00:05:20.362                : en:00:05:20.362
00:06:30.724                : en:00:06:30.724
00:10:10.735                : en:00:10:10.735
00:12:05.391                : en:00:12:05.391
00:16:22.190                : en:00:16:22.190
00:20:44.201                : en:00:20:44.201
00:23:27.197                : en:00:23:27.197
00:27:53.463                : en:00:27:53.463
00:31:16.083                : en:00:31:16.083
00:36:40.573                : en:00:36:40.573
00:40:10.908                : en:00:40:10.908
00:43:41.953                : en:00:43:41.953
00:48:55.432                : en:00:48:55.432
00:52:15.716                : en:00:52:15.716
00:54:32.227                : en:00:54:32.227
00:59:13.091                : en:00:59:13.091
01:02:26.201                : en:01:02:26.201
01:05:31.719                : en:01:05:31.719
01:08:22.140                : en:01:08:22.140
01:12:35.142                : en:01:12:35.142
01:15:20.266                : en:01:15:20.266
01:21:57.329                : en:01:21:57.329
01:27:19.985                : en:01:27:19.985


Джерела та подяки: &
українська доріжка - igor911 - зведення, Neytreenor - запис з ТБ





ЗАЛИШАЙТЕСЬ ЯКОМОГА ДОВШЕ НА РОЗДАЧІ!
СКАЧАВ САМ - ДАЙ СКАЧАТИ ІНШИМ


Бронзовий реліз (на рейтинг впливає 75% завантаженого)
 Трекер:    Зареєстрований   

Завантажити / скачати фільм українською



відео для новачків



 Зареєстрований:   2016-03-27 12:40
 Розмір:   19.27 GB 
 Оцінка фільму:   4.6/10 (Голосів: 17)
   
Інші релізи
Anonymous 







2016-03-27 12:45  
Додав третю частину. Прохання перейменувати теку на Diary of a Wimpy Kid. Trilogy (2010-2012) 720p [Hurtom] та завантажити новий торрент (при додаванні торрента в клієнт не потрібно заходити у цю папку - вказати лише ту, в якій вона знаходиться) - довантажиться лише третя частина.
Ваш часовий пояс: GMT + 2 Години

Нова тема   Відповісти