Завантажити та скачати торренти українською


Під прикриттям / Deep Cover (1992) 720 Ukr/Eng | Sub Eng

Нові коментарі

Нова тема   Відповісти
Автор Повідомлення
bodia87 
Відео Гуртом - фільмокрай
Відео Гуртом - фільмокрай


З нами з: 24.01.09
Востаннє: 09.12.16
Повідомлень: 468

2016-03-20 16:22  
Під прикриттям / Deep Cover (1992) 720 Ukr/Eng | Sub Eng

Під прикриттям / Deep Cover (1992) 720 Ukr/Eng | Sub Eng


Жанр: бойовик, кримінальний
Країна: США



Кінокомпанія: Image Organization, New Line Productions
Режисер: Білл Дьюк
Актори: Лоренс Фишбьорн, Джефф Голдблюм, Вікторія Діллард, Чарльз Мартін Сміт, Сідні Лессік, Кларенс Уїльямс III, Грегорі Сьєрра, Роджер Гуенвьор Сміт, Алекс Колон, Хуліо Оскар Мечосо

Сюжет:
Поліцейський Рассел Стівенс отримує завдання увійти до наркокартелю, що поставляє до Лос-Анджелеса кокаїн. Голова злочинного угрупування Антон Гальегос - дилер, що діє від імені наркобарона з Латинської Америки, впливового політика Гектора Гузмана. Мета операції - знешкодити власника картелю. Стівенс починає свою "кар'єру", виступаючи у ролі дрібного дилера. Але незабаром йому належить вирішити дуже важливе питання: на якому він боці?


Тривалість: 01:47:35
Якість:
Відео:
кодек:
розмір кадру: 1280 х 688
бітрейт: 5437 кб/с

Аудіо # 1:
мова: українська
переклад: багатоголосий закадровий
кодек: 2.0
бітрейт: 192 кб/с

Аудіо # 2:
мова: англійська
переклад: оригінал
кодек: 5.1
бітрейт: 384 кб/с

Субтитри:
мова: англійська
тип: програмні (м'які)
формат: *.srt
MediaInfo
General
Unique ID : 227404117476707640985088943881786603907 (0xAB14709F6B27B14B937E3E732199B983)
Complete name : S:\release\Deep Cover (1992) 720p [Ukr.Eng] Hurtom.mkv
Format : Matroska
Format version : Version 2
File size : 4.52 GiB
Duration : 1h 47mn
Overall bit rate : 6 016 Kbps
Movie name : Deep Cover (1992) -=GarantP=-
Encoded date : UTC 2016-03-20 14:11:33
Writing application : mkvmerge v4.4.0 ('Die Wiederkehr') зібрано Oct 31 2010 21:52:48
Writing library : libebml v1.0.0 + libmatroska v1.0.0

Video
ID : 1
Format : AVC
Format/Info : Advanced Video Codec
Format profile : [email protected]
Format settings, CABAC : Yes
Format settings, ReFrames : 4 frames
Codec ID : V_MPEG4/ISO/AVC
Duration : 1h 47mn
Bit rate : 5 437 Kbps
Width : 1 280 pixels
Height : 688 pixels
Display aspect ratio : 1.926
Frame rate mode : Constant
Frame rate : 29.970 fps
Color space : YUV
Chroma subsampling : 4:2:0
Bit depth : 8 bits
Scan type : Progressive
Bits/(Pixel*Frame) : 0.206
Stream size : 4.00 GiB (88%)
Title : Deep Cover (1992)
Writing library : core 67 r1169M ab85c9b
Encoding settings : cabac=1 / ref=4 / deblock=1:-3:-3 / analyse=0x3:0x113 / me=umh / subme=9 / psy_rd=1.0:0.0 / mixed_ref=1 / me_range=24 / chroma_me=1 / trellis=2 / 8x8dct=1 / cqm=0 / deadzone=21,11 / chroma_qp_offset=-2 / threads=3 / nr=0 / decimate=1 / mbaff=0 / bframes=3 / b_pyramid=1 / b_adapt=1 / b_bias=0 / direct=3 / wpredb=1 / keyint=250 / keyint_min=25 / scenecut=40 / rc=2pass / bitrate=5437 / ratetol=1.0 / qcomp=0.60 / qpmin=10 / qpmax=51 / qpstep=4 / cplxblur=20.0 / qblur=0.5 / vbv_maxrate=40000 / vbv_bufsize=40000 / ip_ratio=1.40 / pb_ratio=1.30 / aq=1:1.00
Language : English
Default : Yes
Forced : No

Audio #1
ID : 2
Format : AC-3
Format/Info : Audio Coding 3
Mode extension : CM (complete main)
Format settings, Endianness : Big
Codec ID : A_AC3
Duration : 1h 47mn
Bit rate mode : Constant
Bit rate : 192 Kbps
Channel(s) : 2 channels
Channel positions : Front: L R
Sampling rate : 48.0 KHz
Bit depth : 16 bits
Compression mode : Lossy
Stream size : 148 MiB (3%)
Title : Deep Cover (1992) Ukr TTP for Inter
Language : Ukrainian
Default : Yes
Forced : No

Audio #2
ID : 3
Format : AC-3
Format/Info : Audio Coding 3
Mode extension : CM (complete main)
Format settings, Endianness : Big
Codec ID : A_AC3
Duration : 1h 47mn
Bit rate mode : Constant
Bit rate : 384 Kbps
Channel(s) : 6 channels
Channel positions : Front: L C R, Side: L R, LFE
Sampling rate : 48.0 KHz
Bit depth : 16 bits
Compression mode : Lossy
Delay relative to video : 32ms
Stream size : 295 MiB (6%)
Language : English
Default : No
Forced : No

Text
ID : 4
Format : UTF-8
Codec ID : S_TEXT/UTF8
Codec ID/Info : UTF-8 Plain Text
Title : Deep Cover (1992)
Language : English
Default : No
Forced : No
Скріншоти









Джерело: &


Срібний реліз (на рейтинг впливає 50% завантаженого)
 Трекер:    Зареєстрований   

Завантажити / скачати фільм українською



відео для новачків



 Зареєстрований:   2016-03-20 16:22
 Розмір:   4.52 GB 
 Оцінка фільму:   10/10 (Голосів: 2)
   
Інші релізи
   Під прикриттям / Deep Cover (1992) AVC Ukr/Eng | Sub Eng bodia87  3 / 0   1.94 GB   2016-03-20 16:07 
Ваш часовий пояс: GMT + 2 Години

Нова тема   Відповісти