Завантажити та скачати торренти українською


Страж / The Guardian (1990) 720p Ukr/Eng | Sub Eng

Нові коментарі

Нова тема   Відповісти
Автор Повідомлення
Anonymous 







2016-03-20 10:49  
Страж / The Guardian (1990) 720p Ukr/Eng | Sub Eng

Альтернативна обкладинка


повнорозмірні зображення відкриються по кліку (з натиснутим CTRL чи кліком середньою кнопкою мишки - у новій вкладці)


Жанр: драма, жахи, містика, трилер
Країна: США



Кінокомпанія: Universal Pictures, Nanny Productions
Режисер: Вільям Фрідкін / William Friedkin
Актори: Дженні Сіґров / Jenny Seagrove, Дваєр Браун / Dwier Brown, Керрі Ловел / Carey Lowell, Бред Голл / Brad Hall, Міґель Ферер / Miguel Ferrer, Памела Брул / Pamela Brull, Ґері Свенсон / Gary Swanson, Віллі Персон / Willy Parsons, Френк Нун / Frank Noon, Тереза Рендл / Theresa Randle та інші

Сюжет:
Молоде подружжя переїжджає жити до Лос-Анджелеса у просторий ультрасучасний будинок. Незабаром у них народжується чарівний хлопчик, а тому необхідно знайти для крихітного сина няню. Вибір подружжя падає на гарну молоду жінку на ім'я Камілла. Але безтурботні батьки навіть у найстрашнішому сні не могли уявити, до якого жаху приведе їх необачний вибір. Разом з Каміллою у будинку з'являється зло: зло стародавнє і безжалісне; зло, яке живиться дітьми...


Рейтинг MPAA: R - особам до 17 років обов'язкова присутність батьків або дорослого опікуна
Вікова категорія: 16+

Тривалість: 01:32:29
Якість: 720p
Відео:
кодек:
розмір кадру: 1280 х 694
бітрейт: 9834 кбіт/с [crf=17]

Аудіо # 1:
мова: українська
переклад: багатоголосий закадровий
кодек: 2.0
бітрейт: 192 кбіт/с
примітка: по ТРК "Україна" було аналогічне озвучення

Аудіо # 2:
мова: англійська
переклад: оригінал
кодек: FLAC 2.0
бітрейт: 627 кбіт/с

Субтитри # 1-2:
мова: англійська (повні, SDH)
тип: програмні (м'які)
формат: *.srt

Збережено оригінальні розділи, як на Blu-ray.
MediaInfo
Код:
Complete name               : The Guardian (1990) [Ukr,Eng sub.Eng] 720p [Hurtom&HDClub].mkv
Format                      : Matroska
Format version              : Version 4 / Version 2
File size                   : 6.88 GiB
Duration                    : 1h 32mn
Overall bit rate mode       : Variable
Overall bit rate            : 10.7 Mbps
Movie name                  : The Guardian (1990) [Ukr,Eng sub.Eng] 720p [Hurtom&HDClub] by igor911
Encoded date                : UTC 2016-03-20 09:18:58
Writing application         : mkvmerge v8.9.0 ('Father Daughter') 64bit
Writing library             : libebml v1.3.3 + libmatroska v1.4.4
Attachements                : cover.jpg

Video
ID                          : 1
Format                      : AVC
Format/Info                 : Advanced Video Codec
Format profile              : [email protected]
Format settings, CABAC      : Yes
Format settings, ReFrames   : 9 frames
Codec ID                    : V_MPEG4/ISO/AVC
Duration                    : 1h 32mn
Bit rate                    : 9 834 Kbps
Width                       : 1 280 pixels
Height                      : 694 pixels
Display aspect ratio        : 1.85:1
Frame rate mode             : Constant
Frame rate                  : 23.976 (24000/1001) fps
Color space                 : YUV
Chroma subsampling          : 4:2:0
Bit depth                   : 8 bits
Scan type                   : Progressive
Bits/(Pixel*Frame)          : 0.462
Stream size                 : 6.35 GiB (92%)
Title                       : Страж / The Guardian (1990) 720p [SbR]
Writing library             : core 148 r2638+53 bb29004 t_mod_Custom [[email protected] X86_64]
Encoding settings           : cabac=1 / ref=9 / deblock=1:-3:-3 / analyse=0x3:0x133 / me=umh / subme=11 / psy=1 / fade_compensate=0.00 / psy_rd=1.00:0.05 / mixed_ref=1 / me_range=24 / chroma_me=1 / trellis=2 / 8x8dct=1 / cqm=0 / deadzone=21,11 / fast_pskip=0 / chroma_qp_offset=-3 / threads=6 / lookahead_threads=1 / sliced_threads=0 / nr=0 / decimate=1 / interlaced=0 / bluray_compat=0 / constrained_intra=0 / fgo=0 / bframes=11 / b_pyramid=2 / b_adapt=2 / b_bias=0 / direct=3 / weightb=1 / open_gop=0 / weightp=2 / keyint=250 / keyint_min=23 / scenecut=40 / intra_refresh=0 / rc_lookahead=60 / rc=crf / mbtree=0 / crf=17.0000 / qcomp=0.60 / qpmin=0:0:0 / qpmax=69:69:69 / qpstep=4 / vbv_maxrate=62500 / vbv_bufsize=78125 / crf_max=0.0 / nal_hrd=none / filler=0 / ip_ratio=1.40 / pb_ratio=1.30 / aq=1:0.65 / aq-sensitivity=10.00 / aq-factor=1.00:1.00:1.00 / aq2=0 / aq3=0
Language                    : English
Default                     : Yes
Forced                      : No
Color range                 : Limited
Color primaries             : BT.709
Transfer characteristics    : BT.709
Matrix coefficients         : BT.709

Audio #1
ID                          : 2
Format                      : AC-3
Format/Info                 : Audio Coding 3
Mode extension              : CM (complete main)
Format settings, Endianness : Big
Codec ID                    : A_AC3
Duration                    : 1h 32mn
Bit rate mode               : Constant
Bit rate                    : 192 Kbps
Channel(s)                  : 2 channels
Channel positions           : Front: L R
Sampling rate               : 48.0 KHz
Frame rate                  : 31.250 fps (1536 spf)
Compression mode            : Lossy
Stream size                 : 127 MiB (2%)
Title                       : MVO [NLO-TV] 2.0 192 kbps [Hurtom-patriot2305,nick_89]
Language                    : Ukrainian
Default                     : Yes
Forced                      : No

Audio #2
ID                          : 3
Format                      : FLAC
Format/Info                 : Free Lossless Audio Codec
Codec ID                    : A_FLAC
Duration                    : 1h 32mn
Bit rate mode               : Variable
Bit rate                    : 627 Kbps
Channel(s)                  : 2 channels
Channel positions           : Front: L R
Sampling rate               : 48.0 KHz
Frame rate                  : 11.719 fps (4096 spf)
Bit depth                   : 16 bits
Stream size                 : 415 MiB (6%)
Title                       : Original Flac 2.0 627 kbps
Writing library             : libFLAC 1.2.1 (UTC 2007-09-17)
Language                    : English
Default                     : No
Forced                      : No

Text #1
ID                          : 4
Format                      : UTF-8
Codec ID                    : S_TEXT/UTF8
Codec ID/Info               : UTF-8 Plain Text
Duration                    : 1h 25mn
Bit rate                    : 43 bps
Count of elements           : 1005
Stream size                 : 27.4 KiB (0%)
Title                       : Eng full
Language                    : English
Default                     : No
Forced                      : No

Text #2
ID                          : 5
Format                      : UTF-8
Codec ID                    : S_TEXT/UTF8
Codec ID/Info               : UTF-8 Plain Text
Duration                    : 1h 29mn
Bit rate                    : 50 bps
Count of elements           : 1318
Stream size                 : 33.4 KiB (0%)
Title                       : Eng SDH
Language                    : English
Default                     : No
Forced                      : No

Menu
00:00:00.000                : en:00:00:00.000
00:12:43.927                : en:00:12:43.927
00:26:10.277                : en:00:26:10.277
00:39:13.059                : en:00:39:13.059
00:56:35.349                : en:00:56:35.349
01:06:24.730                : en:01:06:24.730
01:19:30.096                : en:01:19:30.096
01:29:14.430                : en:01:29:14.430
Порівняння з оригіналом

Оригінал <----------> Ріп





Джерела та подяки: &
українська доріжка - patriot2305 - зведення, nick_89 - запис з ТБ (всі - Гуртом).


ЗАЛИШАЙТЕСЬ ЯКОМОГА ДОВШЕ НА РОЗДАЧІ!

СКАЧАВ САМ - ДАЙ СКАЧАТИ ІНШИМ


Срібний реліз (на рейтинг впливає 50% завантаженого)
 Трекер:    Зареєстрований   

Завантажити / скачати фільм українською



відео для новачків



 Зареєстрований:   2016-03-20 12:00
 Розмір:   6.88 GB 
 Оцінка фільму:   1.8/10 (Голосів: 11)
   
Інші релізи
   Страж / The Guardian (1990) Ukr/Eng patriot2305  1 / 0   1.37 GB   2014-08-10 17:05 
Ваш часовий пояс: GMT + 2 Години

Нова тема   Відповісти