Завантажити та скачати торренти українською


Екзорцист: Початок / Exorcist: The Beginning (2004) 720p Ukr/Eng | Sub Eng

Нові коментарі

Нова тема   Відповісти
Автор Повідомлення
Anonymous 







2016-03-19 21:08  
Екзорцист: Початок / Exorcist: The Beginning (2004) 720p Ukr/Eng | Sub Eng



Оригінальний та альтернативний постери




повнорозмірні зображення відкриються по кліку (з натиснутим CTRL чи кліком середньою кнопкою мишки - у новій вкладці)


Жанр: жахи, трилер, детектив
Країна: США



Кінокомпанія: Morgan Creek Productions, Dominion Productions, Post Amazers
Режисер: Ренні Гарлін / Renny Harlin
Актори: Стеллан Скарсґард / Stellan Skarsgård, Ізабелла Скорупко / Izabella Scorupco, Джеймс Д`Арсі / James D'Arcy, Ремі Свіні / Remy Sweeney, Джуліан Ведгем / Julian Wadham, Ендрю Френч / Andrew French, Ральф Браун / Ralph Brown, Бен Кросс / Ben Cross, Девід Бредлі / David Bradley та інші

Сюжет:
Після Другої світової війни отець Меррін, пригнічений спогадами про жахіття війни і думками про своє покликання, складає сан і залишає Європу. Згадавши про свою освіту археолога, Меррін приєднується до експедиції, що займається розкопками у віддаленому районі Африки.

Експедиція знаходить прекрасну церкву візантійського стилю, що похована під землею у той же день, коли було завершене будівництво. Під церквою Меррін знаходить ще більш древній склеп, що виявився обителлю Князя темряви, який століттями чекав нагоди вирватись на волю...


Рейтинг MPAA: R - особам до 17 років обов'язкова присутність батьків або дорослого опікуна
Вікова категорія: 16+

Тривалість: 01:53:50
Якість: 720p
Відео:
кодек:
розмір кадру: 1280 х 546
бітрейт: 5863 кбіт/с [crf=15.5]

Аудіо # 1: &
мова: українська
переклад: багатоголосий закадровий
кодек: 2.0
бітрейт: 192 кбіт/с

Аудіо # 2:
мова: англійська
переклад: оригінал
кодек: 5.1
бітрейт: 1509 кбіт/с

Субтитри:
мова: англійська
тип: програмні (м'які)
формат: *.srt

Збережено оригінальні розділи, як на Blu-ray.
MediaInfo та log
Код:
Complete name               : Exorcist. The Beginning (2004) [Ukr,Eng sub.Eng] 720p [Hurtom & HDClub].mkv
Format                      : Matroska
Format version              : Version 4 / Version 2
File size                   : 6.00 GiB
Duration                    : 1h 53mn
Overall bit rate            : 7 567 Kbps
Movie name                  : Екзорцист: Початок / Exorcist: The Beginning (2004) [Ukr,Eng sub.Eng] 720p [Hurtom & HDClub] by igor911
Encoded date                : UTC 2016-03-19 14:03:08
Writing application         : mkvmerge v8.9.0 ('Father Daughter') 64bit
Writing library             : libebml v1.3.3 + libmatroska v1.4.4
Attachements                : cover.jpg / xlog.txt

Video
ID                          : 1
Format                      : AVC
Format/Info                 : Advanced Video Codec
Format profile              : [email protected]
Format settings, CABAC      : Yes
Format settings, ReFrames   : 11 frames
Codec ID                    : V_MPEG4/ISO/AVC
Duration                    : 1h 53mn
Bit rate                    : 5 863 Kbps
Width                       : 1 280 pixels
Height                      : 546 pixels
Display aspect ratio        : 2.35:1
Frame rate mode             : Constant
Frame rate                  : 23.976 (24000/1001) fps
Color space                 : YUV
Chroma subsampling          : 4:2:0
Bit depth                   : 8 bits
Scan type                   : Progressive
Bits/(Pixel*Frame)          : 0.350
Stream size                 : 4.65 GiB (77%)
Title                       : Екзорцист: Початок / Exorcist: The Beginning (2004) 720p [SbR]
Writing library             : core 148 r2638kMod 7599210
Encoding settings           : cabac=1 / ref=11 / deblock=1:-2:-2 / analyse=0x3:0x133 / me=umh / subme=11 / psy=1 / fade_compensate=0.00 / psy_rd=1.00:0.00 / mixed_ref=1 / me_range=32 / chroma_me=1 / trellis=2 / 8x8dct=1 / cqm=0 / deadzone=21,11 / fast_pskip=1 / chroma_qp_offset=-2 / threads=12 / lookahead_threads=2 / sliced_threads=0 / nr=0 / decimate=1 / interlaced=0 / bluray_compat=0 / constrained_intra=0 / fgo=0 / bframes=8 / b_pyramid=2 / b_adapt=2 / b_bias=0 / direct=1 / weightb=1 / open_gop=0 / weightp=2 / keyint=250 / keyint_min=23 / scenecut=40 / intra_refresh=0 / rc_lookahead=60 / rc=crf / mbtree=0 / crf=15.5000 / qcomp=0.70 / qpmin=0 / qpmax=69 / qpstep=4 / vbv_maxrate=62500 / vbv_bufsize=78125 / crf_max=0.0 / nal_hrd=none / filler=0 / ip_ratio=1.40 / pb_ratio=1.30 / aq=1:0.80
Language                    : English
Default                     : Yes
Forced                      : No
Color range                 : Limited
Color primaries             : BT.709
Transfer characteristics    : BT.709
Matrix coefficients         : BT.709

Audio #1
ID                          : 2
Format                      : AC-3
Format/Info                 : Audio Coding 3
Mode extension              : CM (complete main)
Format settings, Endianness : Big
Codec ID                    : A_AC3
Duration                    : 1h 53mn
Bit rate mode               : Constant
Bit rate                    : 192 Kbps
Channel(s)                  : 2 channels
Channel positions           : Front: L R
Sampling rate               : 48.0 KHz
Frame rate                  : 31.250 fps (1536 spf)
Compression mode            : Lossy
Stream size                 : 156 MiB (3%)
Title                       : MVO [Novyj & ICTV] 2.0 192 kbps [Hurtom-patriot2305,POMEO]
Language                    : Ukrainian
Default                     : Yes
Forced                      : No

Audio #2
ID                          : 3
Format                      :
Format/Info                 : Digital Theater Systems
Mode                        : 16
Format settings, Endianness : Big
Codec ID                    : A_DTS
Duration                    : 1h 53mn
Bit rate mode               : Constant
Bit rate                    : 1 509 Kbps
Channel(s)                  : 6 channels
Channel positions           : Front: L C R, Side: L R, LFE
Sampling rate               : 48.0 KHz
Frame rate                  : 93.750 fps (512 spf)
Bit depth                   : 24 bits
Compression mode            : Lossy
Stream size                 : 1.20 GiB (20%)
Title                       : Original 5.1 1509 kbps
Language                    : English
Default                     : No
Forced                      : No

Text
ID                          : 4
Format                      : UTF-8
Codec ID                    : S_TEXT/UTF8
Codec ID/Info               : UTF-8 Plain Text
Duration                    : 1h 41mn
Bit rate                    : 29 bps
Count of elements           : 683
Stream size                 : 21.8 KiB (0%)
Language                    : English
Default                     : No
Forced                      : No

Menu
00:00:00.000                : en:Chapter 1
00:03:24.037                : en:Chapter 2
00:09:08.047                : en:Chapter 3
00:13:33.103                : en:Chapter 4
00:18:03.832                : en:Chapter 5
00:23:12.432                : en:Chapter 6
00:27:01.703                : en:Chapter 7
00:29:35.690                : en:Chapter 8
00:32:28.696                : en:Chapter 9
00:37:18.110                : en:Chapter 10
00:40:29.301                : en:Chapter 11
00:44:59.196                : en:Chapter 12
00:49:24.294                : en:Chapter 13
00:51:46.269                : en:Chapter 14
00:54:40.986                : en:Chapter 15
00:59:30.525                : en:Chapter 16
01:03:41.526                : en:Chapter 17
01:08:21.555                : en:Chapter 18
01:10:37.483                : en:Chapter 19
01:13:42.709                : en:Chapter 20
01:16:33.380                : en:Chapter 21
01:18:55.439                : en:Chapter 22
01:24:50.335                : en:Chapter 23
01:27:34.290                : en:Chapter 24
01:31:57.637                : en:Chapter 25
01:34:26.535                : en:Chapter 26
01:38:27.026                : en:Chapter 27
01:40:56.300                : en:Chapter 28
01:45:07.551                : en:Chapter 29
01:46:18.372                : en:Chapter 30


Код:
raw [info]: 1280x546p 1:1 @ 24000/1001 fps (cfr)
[info]: using SAR=1/1
[info]: using cpu capabilities: MMX2 SSE2Fast SSSE3 SSE4.2 AVX
[info]: profile High, level 4.1
[info]: frame I:1634  Avg QP:12.72  size:109136
[info]: frame P:35165 Avg QP:14.16  size: 55394
[info]: frame B:126602 Avg QP:16.26  size: 22657
[info]: consecutive B-frames:  2.2%  2.6%  5.5% 25.3% 18.8% 31.6%  6.3%  5.3%  2.4%
[info]: mb I  I16..4:  4.3% 81.6% 14.1%
[info]: mb P  I16..4:  0.5% 25.5%  2.2%  P16..4: 19.6% 26.9% 15.1%  3.2%  0.2%    skip: 6.6%
[info]: mb B  I16..4:  0.1%  4.1%  0.4%  B16..8: 30.7% 26.3%  7.0%  direct: 8.8%  skip:22.7%  L0:41.9% L1:41.3% BI:16.8%
[info]: 8x8 transform intra:89.2% inter:50.4%
[info]: coded y,uvDC,uvAC intra: 92.9% 89.5% 77.3% inter: 44.1% 24.7% 6.6%
[info]: i16 v,h,dc,p: 43% 11%  8% 38%
[info]: i8 v,h,dc,ddl,ddr,vr,hd,vl,hu: 11%  8% 13%  9% 12% 11% 11% 11% 13%
[info]: i4 v,h,dc,ddl,ddr,vr,hd,vl,hu: 37%  5%  9%  6% 10% 10%  8%  8%  8%
[info]: i8c dc,h,v,p: 46% 23% 17% 14%
[info]: Weighted P-Frames: Y:10.2% UV:5.2%
[info]: ref P L0: 45.4% 10.4% 18.2%  6.9%  5.6%  3.7%  3.3%  1.8%  1.7%  1.3%  1.4%  0.2%  0.0%
[info]: ref B L0: 75.7% 11.3%  4.7%  2.7%  1.8%  1.5%  1.1%  0.7%  0.4%  0.2%
[info]: ref B L1: 93.9%  6.1%
[info]: kb/s:5863.00

encoded 163401 frames, 7.82 fps, 5863.00 kb/s, duration 5:48:02.99
Порівняння з оригіналом

Ріп <----------> Оригінал






Джерела та подяки: &
українська доріжка - patriot2305 - зведення, POMEO - запис з ТБ; українізований постер - zgryvus (всі - Гуртом).



ЗАЛИШАЙТЕСЬ ЯКОМОГА ДОВШЕ НА РОЗДАЧІ!
СКАЧАВ САМ - ДАЙ СКАЧАТИ ІНШИМ


Срібний реліз (на рейтинг впливає 50% завантаженого)
 Трекер:    Зареєстрований   

Завантажити / скачати фільм українською



відео для новачків



 Зареєстрований:   2016-03-19 21:08
 Розмір:   6 GB 
 Оцінка фільму:   2.5/10 (Голосів: 12)
   
Інші релізи
   Екзорцист: Початок / Exorcist: The Beginning (2004) patriot2305  1 / 0   1.45 GB   2015-08-21 11:40 
Ваш часовий пояс: GMT + 2 Години

Нова тема   Відповісти