Завантажити та скачати торренти українською


Лиса нянька / The Pacifier (2005) 720p Ukr/Eng | Sub Ukr/Eng

Нові коментарі

Нова тема   Відповісти
Автор Повідомлення
Anonymous 







2016-03-18 15:50  
Лиса нянька / The Pacifier (2005) 720p Ukr/Eng | Sub Ukr/Eng



Альтернативні постери




повнорозмірні зображення відкриються по кліку (з натиснутим CTRL чи кліком середньою кнопкою мишки - у новій вкладці)


Жанр: бойовик, трилер, драма, комедія, сімейний
Країна: США, Канада



Кінокомпанія: Walt Disney Pictures, Spyglass Entertainment
Режисер: Адам Шенкман / Adam Shankman
Актори: Він Дізель / Vin Diesel, Лорен Грехем / Lauren Graham, Брітані Сноу / Britany Snow, Фейт Форд / Faith Ford, Керол Кейн / Carol Kane, Бред Ґеррет / Brad Garrett, Морган Йорк / Morgan York, Кеган Гувер / Kegan Hoover, Макс Тіріот / Max Thieriot, Кріс Поттер / Chris Potter та інші

Сюжет:
Шейн Вульф - член елітного підрозділу Морські котики, що виконав за своє життя багато небезпечних і відповідальних бойових завдань і готовий до будь-яких несподіванок, окрім дитячих... Коли йому доручають охороняти дітей вбитого вченого, що працював над секретними проектами уряду США, Шейну доводиться зіткнутися з проблемами зовсім іншого характеру - змінити немовляті підгузки виявляється набагато важче, ніж знешкодити десяток терористів.


Рейтинг MPAA: PG - рекомендується присутність батьків
Вікова категорія: 6+

Тривалість: 01:35:20
Якість: 720p
Відео:
кодек:
розмір кадру: 1280 х 534
бітрейт: 6624 кбіт/с [crf=17]

Аудіо # 1:
мова: українська
переклад: двоголосий закадровий | Студія 1+1
ролі озвучили: Олександр Завальський і Лідія Муращенко
кодек: 5.1
бітрейт: 448 кбіт/с
примітка: з цим озвученням фільм транслювався також по та

Аудіо # 2:
мова: англійська
переклад: оригінал
кодек: 5.1
бітрейт: 640 кбіт/с

Субтитри # 1:
мова: українська
тип: програмні (м'які)
формат: *.srt

Субтитри # 2:
мова: англійська
тип: програмні (м'які)
формат: *.srt

Збережено оригінальні розділи, як на Blu-ray.
MediaInfo
Код:
Complete name               : The Pacifier (2005) [Ukr,Eng sub.Ukr,Eng] 720p [Hurtom&HDClub].mkv
Format                      : Matroska
Format version              : Version 4 / Version 2
File size                   : 5.24 GiB
Duration                    : 1h 35mn
Overall bit rate            : 7 868 Kbps
Movie name                  : Лиса нянька / The Pacifier (2005) [Ukr,Eng sub.Ukr,Eng] 720p [Hurtom&HDClub] by igor911
Encoded date                : UTC 2016-03-18 06:20:48
Writing application         : mkvmerge v8.9.0 ('Father Daughter') 64bit
Writing library             : libebml v1.3.3 + libmatroska v1.4.4
Attachements                : cover.jpg
DURATION                    : 01:28:23.673000000
NUMBER_OF_FRAMES            : 1033
NUMBER_OF_BYTES             : 35318
_STATISTICS_WRITING_APP     : mkvmerge v8.9.0 ('Father Daughter') 64bit
_STATISTICS_WRITING_DATE_UT : 2016-03-18 06:20:48
_STATISTICS_TAGS            : BPS DURATION NUMBER_OF_FRAMES NUMBER_OF_BYTES

Video
ID                          : 1
Format                      : AVC
Format/Info                 : Advanced Video Codec
Format profile              : [email protected]
Format settings, CABAC      : Yes
Format settings, ReFrames   : 12 frames
Codec ID                    : V_MPEG4/ISO/AVC
Duration                    : 1h 35mn
Bit rate                    : 6 624 Kbps
Width                       : 1 280 pixels
Height                      : 534 pixels
Display aspect ratio        : 2.40:1
Frame rate mode             : Constant
Frame rate                  : 23.976 fps
Color space                 : YUV
Chroma subsampling          : 4:2:0
Bit depth                   : 8 bits
Scan type                   : Progressive
Bits/(Pixel*Frame)          : 0.404
Stream size                 : 4.41 GiB (84%)
Title                       : Лиса нянька / The Pacifier (2005) 720p [SbR]
Writing library             : core 148 r2638+53 bb29004 t_mod_Custom [[email protected] X86_64]
Encoding settings           : cabac=1 / ref=12 / deblock=1:-3:-3 / analyse=0x3:0x133 / me=umh / subme=10 / psy=1 / fade_compensate=0.00 / psy_rd=1.00:0.05 / mixed_ref=1 / me_range=24 / chroma_me=1 / trellis=2 / 8x8dct=1 / cqm=0 / deadzone=21,11 / fast_pskip=0 / chroma_qp_offset=-3 / threads=6 / lookahead_threads=1 / sliced_threads=0 / nr=0 / decimate=1 / interlaced=0 / bluray_compat=0 / constrained_intra=0 / fgo=0 / bframes=11 / b_pyramid=2 / b_adapt=2 / b_bias=0 / direct=3 / weightb=1 / open_gop=0 / weightp=2 / keyint=250 / keyint_min=23 / scenecut=40 / intra_refresh=0 / rc_lookahead=60 / rc=crf / mbtree=0 / crf=17.0000 / qcomp=0.65 / qpmin=0:0:0 / qpmax=69:69:69 / qpstep=4 / vbv_maxrate=62500 / vbv_bufsize=78125 / crf_max=0.0 / nal_hrd=none / filler=0 / ip_ratio=1.40 / pb_ratio=1.30 / aq=1:0.80 / aq-sensitivity=10.00 / aq-factor=1.00:1.00:1.00 / aq2=0 / aq3=0
Language                    : English
Default                     : Yes
Forced                      : No
Color range                 : Limited
Color primaries             : BT.709
Transfer characteristics    : BT.709
Matrix coefficients         : BT.709
DURATION                    : 01:35:20.715000000
NUMBER_OF_FRAMES            : 137160
NUMBER_OF_BYTES             : 4846460150
_STATISTICS_WRITING_APP     : mkvmerge v8.9.0 ('Father Daughter') 64bit
_STATISTICS_WRITING_DATE_UT : 2016-03-18 06:20:48
_STATISTICS_TAGS            : BPS DURATION NUMBER_OF_FRAMES NUMBER_OF_BYTES

Audio #1
ID                          : 2
Format                      : AC-3
Format/Info                 : Audio Coding 3
Mode extension              : CM (complete main)
Format settings, Endianness : Big
Codec ID                    : A_AC3
Duration                    : 1h 35mn
Bit rate mode               : Constant
Bit rate                    : 448 Kbps
Channel(s)                  : 6 channels
Channel positions           : Front: L C R, Side: L R, LFE
Sampling rate               : 48.0 KHz
Compression mode            : Lossy
Stream size                 : 306 MiB (6%)
Title                       : DVO [1+1, ICTV] 5.1 448 kbps [Hurtom-_oles,drakon87,urij546724]
Language                    : Ukrainian
Default                     : No
Forced                      : No

Audio #2
ID                          : 3
Format                      : AC-3
Format/Info                 : Audio Coding 3
Mode extension              : CM (complete main)
Format settings, Endianness : Big
Codec ID                    : A_AC3
Duration                    : 1h 35mn
Bit rate mode               : Constant
Bit rate                    : 640 Kbps
Channel(s)                  : 6 channels
Channel positions           : Front: L C R, Side: L R, LFE
Sampling rate               : 48.0 KHz
Compression mode            : Lossy
Stream size                 : 436 MiB (8%)
Title                       : Original 5.1 640 kbps
Language                    : English
Default                     : No
Forced                      : No

Text #1
ID                          : 4
Format                      : UTF-8
Codec ID                    : S_TEXT/UTF8
Codec ID/Info               : UTF-8 Plain Text
Title                       : Ukr full [Hurtom-_oles]
Language                    : Ukrainian
Default                     : No
Forced                      : No

Text #2
ID                          : 5
Format                      : UTF-8
Codec ID                    : S_TEXT/UTF8
Codec ID/Info               : UTF-8 Plain Text
Title                       : Eng full
Language                    : English
Default                     : No
Forced                      : No

Menu
00:00:00.000                : en:00:00:00.000
00:06:02.987                : en:00:06:02.987
00:15:39.480                : en:00:15:39.480
00:20:49.289                : en:00:20:49.289
00:25:05.170                : en:00:25:05.170
00:33:03.898                : en:00:33:03.898
00:36:11.961                : en:00:36:11.961
00:41:02.877                : en:00:41:02.877
00:46:39.505                : en:00:46:39.505
00:53:54.481                : en:00:53:54.481
00:57:30.488                : en:00:57:30.488
01:01:50.998                : en:01:01:50.998
01:09:55.608                : en:01:09:55.608
01:19:56.458                : en:01:19:56.458
01:25:33.837                : en:01:25:33.837
01:29:54.013                : en:01:29:54.013


Порівняння з оригіналом
Оригінал <----------> Ріп







Джерела та подяки: &
українська доріжка - _oles - зведення, drakon87, urij546724 - запис з ТБ; українські субтитри - _oles, українізований постер - Bovich, igor911; фільмографії акторів та інформація про озвучення - Віктор (всі - Гуртом).


ЗАЛИШАЙТЕСЬ ЯКОМОГА ДОВШЕ НА РОЗДАЧІ!

СКАЧАВ САМ - ДАЙ СКАЧАТИ ІНШИМ


 Трекер:    Зареєстрований   

Завантажити / скачати фільм українською



відео для новачків



 Зареєстрований:   2016-03-18 15:50
 Розмір:   5.24 GB 
 Оцінка фільму:   4.7/10 (Голосів: 17)
   
Інші релізи
   Лиса нянька / The Pacifier (2005) Ukr/Eng | Sub Ukr/Eng igor911  11 / 0   1.75 GB   2016-03-18 13:14 
Ваш часовий пояс: GMT + 2 Години

Нова тема   Відповісти