Завантажити та скачати торренти українською


Люсі / Lucy (2014) 720p-mini (60fps)

Нові коментарі

Нова тема   Відповісти
Автор Повідомлення
Drool 
VIP


З нами з: 17.04.10
Востаннє: 03.12.16
Повідомлень: 1262

2016-03-18 15:29  
Люсі / Lucy (2014) 720p-mini (60fps)
Люсі / Lucy (2014) 720p-mini (60fps)

Жанр: бойовик, фантастика
Країна: Франція



Кінокомпанія: Canal+ [fr], Ciné, EuropaCorp, TF1 Films Production
Режисер: Люк Бессон
Актори: Скарлетт Йоганссон, Морган Фрімен, Чхве Мін Сік, Амр Вакед, Джуліан Райнд-Татт, Йохан Филип Асбек, Аналей Тіптон

Сюжет:
Ще вчора вона була просто сексапільною блондинкою, а сьогодні - найнебезпечніше і смертоносне створіння на планеті з надприродними здібностями та інтелектом. Те, що зовсім недавно кращі уми світу вважали фантастичною теорією, для неї стало реальністю. І тепер із здобичі вона перетвориться на мисливицю.

Її звуть Люсі...


Тривалість: 01:29:20
Якість: 720p-mini
Відео:
кодек:
розмір кадру: 1280x536
бітрейт: 6000 кб/с
кадрів на секунду: 59.940 к/с

Аудіо:
мова: українська
переклад: професійний дубльований
кодек: 2.0
бітрейт: 192 кб/с

Субтитри:
мова: українська
тип: програмні (м'які)
формат: *.srt
MediaInfo
General
Unique ID : 283605125724979332411446361688840223304 (0xD55C5C43468ED4C51DAE0053D8B63A48)
Complete name : /mnt/disk_d/Video/Lucy.2014.Ukr.Dub-LINE..720p-mini.60fps.mkv
Format : Matroska
Format version : Version 4 / Version 2
File size : 3.85 GiB
Duration : 1h 29mn
Overall bit rate : 6 169 Kbps
Movie name : Люсі / Lucy (2014) 720p-mini [60 fps] | Line | HD-Films
Encoded date : UTC 2016-03-18 12:43:49
Writing application : mkvmerge v8.5.0 ('Vanishing Act') 64bit
Writing library : libebml v1.3.1 + libmatroska v1.4.2
DURATION : 01:17:56.462000000
NUMBER_OF_FRAMES : 63
NUMBER_OF_BYTES : 2150
_STATISTICS_WRITING_APP : mkvmerge v8.5.0 ('Vanishing Act') 64bit
_STATISTICS_WRITING_DATE_UTC : 2016-03-18 12:43:49
_STATISTICS_TAGS : BPS DURATION NUMBER_OF_FRAMES NUMBER_OF_BYTES

Video
ID : 1
Format : AVC
Format/Info : Advanced Video Codec
Format profile : [email protected]
Format settings, CABAC : Yes
Format settings, ReFrames : 9 frames
Codec ID : V_MPEG4/ISO/AVC
Duration : 1h 29mn
Bit rate : 6 000 Kbps
Width : 1 280 pixels
Height : 536 pixels
Display aspect ratio : 2.40:1
Frame rate mode : Constant
Frame rate : 59.880 fps
Original frame rate : 59.940 fps
Color space : YUV
Chroma subsampling : 4:2:0
Bit depth : 8 bits
Scan type : Progressive
Bits/(Pixel*Frame) : 0.146
Stream size : 3.65 GiB (95%)
Title : Люсі / Lucy (2014) 720p-mini [60 fps] | Line | HD-Films
Writing library : core 146 r2538 121396c
Encoding settings : cabac=1 / ref=9 / deblock=1:0:0 / analyse=0x3:0x113 / me=umh / subme=9 / psy=1 / psy_rd=1.00:0.10 / mixed_ref=1 / me_range=32 / chroma_me=1 / trellis=2 / 8x8dct=1 / cqm=0 / deadzone=21,11 / fast_pskip=0 / chroma_qp_offset=-3 / threads=12 / lookahead_threads=3 / sliced_threads=0 / nr=0 / decimate=1 / interlaced=0 / bluray_compat=0 / constrained_intra=0 / bframes=16 / b_pyramid=2 / b_adapt=2 / b_bias=0 / direct=3 / weightb=1 / open_gop=0 / weightp=2 / keyint=250 / keyint_min=25 / scenecut=40 / intra_refresh=0 / rc_lookahead=40 / rc=2pass / mbtree=0 / bitrate=6000 / ratetol=1.0 / qcomp=0.60 / qpmin=0 / qpmax=69 / qpstep=4 / cplxblur=20.0 / qblur=0.5 / vbv_maxrate=14000 / vbv_bufsize=14000 / nal_hrd=none / filler=0 / ip_ratio=1.40 / pb_ratio=1.30 / aq=1:1.00
Default : Yes
Forced : Yes
DURATION : 01:29:20.544000000
NUMBER_OF_FRAMES : 321310
NUMBER_OF_BYTES : 4002618654
_STATISTICS_WRITING_APP : mkvmerge v8.5.0 ('Vanishing Act') 64bit
_STATISTICS_WRITING_DATE_UTC : 2016-03-18 12:43:49
_STATISTICS_TAGS : BPS DURATION NUMBER_OF_FRAMES NUMBER_OF_BYTES

Audio
ID : 2
Format : AC-3
Format/Info : Audio Coding 3
Mode extension : CM (complete main)
Format settings, Endianness : Big
Codec ID : A_AC3
Duration : 1h 29mn
Bit rate mode : Constant
Bit rate : 192 Kbps
Channel(s) : 2 channels
Channel positions : Front: L R
Sampling rate : 48.0 KHz
Compression mode : Lossy
Stream size : 123 MiB (3%)
Title : професійний дубльований (Line-In)
Language : Ukrainian
Default : Yes
Forced : Yes

Text
ID : 3
Format : UTF-8
Codec ID : S_TEXT/UTF8
Codec ID/Info : UTF-8 Plain Text
Title : форсовані
Language : Ukrainian
Default : Yes
Forced : Yes
Скріншоти



Джерело відеоряду:
Особиста оцінка: 9 - давно не бачив настільки якісне кіно


 Трекер:    Зареєстрований   

Завантажити / скачати фільм українською



відео для новачків



 Зареєстрований:   2016-03-18 15:29
 Розмір:   3.85 GB 
 Оцінка фільму:   9.8/10 (Голосів: 17)
   
Інші релізи
   Люсі / Lucy (2014) AVC Ukr/Eng | Sub Ukr/Eng omm  2 / 0   1.62 GB   2014-11-24 19:18 
   Люсі / Lucy (2014) patriot2305  11 / 0   1.45 GB   2014-11-23 10:26 
   Люсі / Lucy (2014) 720p Ukr/Eng | Sub Ukr/Eng 11FrYkT  2 / 0   3.88 GB   2014-11-22 21:06 
Bohdan237 
Відео Гуртом - фільмокрай
Відео Гуртом - фільмокрай


З нами з: 12.02.12
Востаннє: 04.12.16
Повідомлень: 383

2016-03-18 15:43  
Вау круто, чудове кіно у гарній якості 10 з 10. Дякую
lpershyi 
Попереджень: 2
Попереджень: 2 


З нами з: 04.01.11
Востаннє: 30.11.16
Повідомлень: 2622

2016-07-10 13:17  
Можете виправити помилку на постері з "jokhansson" на Йоганссон? Дякую.
Drool 
VIP


З нами з: 17.04.10
Востаннє: 03.12.16
Повідомлень: 1262

2016-07-11 07:36  
lpershyi написано:
Можете виправити помилку на постері з "jokhansson" на Йоганссон? Дякую.

Виправив, як міг. Але було б круто, якби хтось із спеців зробив нормальний український постер ось з цієї картинки і закинув на http://posters.hurtom.com, бо пошуком там для цього фільму не знаходиться.

igor911 
Відео Гуртом
Відео Гуртом


З нами з: 18.01.08
Востаннє: 04.12.16
Повідомлень: 5127

2016-07-12 15:03  
Замінив постер. Подяка DanyZemlyanoy
lpershyi 
Попереджень: 2
Попереджень: 2 


З нами з: 04.01.11
Востаннє: 30.11.16
Повідомлень: 2622

2016-07-13 12:40  
igor911-e , Drool-e
+1
ПанеDanyZemlyanoy-e! Дякую.

Ваш часовий пояс: GMT + 2 Години

Нова тема   Відповісти