Завантажити та скачати торренти українською


Лиса нянька / The Pacifier (2005) Ukr/Eng | Sub Ukr/Eng

Нові коментарі

Нова тема   Відповісти
Автор Повідомлення
Anonymous 







2016-03-18 12:50  
Лиса нянька / The Pacifier (2005) Ukr/Eng | Sub Ukr/Eng



Альтернативні постери




повнорозмірні зображення відкриються по кліку (з натиснутим CTRL чи кліком середньою кнопкою мишки - у новій вкладці)


Жанр: бойовик, трилер, драма, комедія, сімейний
Країна: США, Канада



Кінокомпанія: Walt Disney Pictures, Spyglass Entertainment
Режисер: Адам Шенкман / Adam Shankman
Актори: Він Дізель / Vin Diesel, Лорен Грехем / Lauren Graham, Брітані Сноу / Britany Snow, Фейт Форд / Faith Ford, Керол Кейн / Carol Kane, Бред Ґеррет / Brad Garrett, Морган Йорк / Morgan York, Кеган Гувер / Kegan Hoover, Макс Тіріот / Max Thieriot, Кріс Поттер / Chris Potter та інші

Сюжет:
Шейн Вульф - член елітного підрозділу Морські котики, що виконав за своє життя багато небезпечних і відповідальних бойових завдань і готовий до будь-яких несподіванок, окрім ... дитячих. Коли йому доручають охороняти дітей вбитого вченого, що працював над секретними проектами уряду США, Шейну доводиться зіткнутися з проблемами зовсім іншого характеру - змінити немовляті підгузки виявляється набагато важче, ніж знешкодити десяток терористів.


Рейтинг MPAA: PG - рекомендується присутність батьків
Вікова категорія: 6+

Тривалість: 01:35:20
Якість:
Відео:
кодек:
розмір кадру: 720 х 304
бітрейт: 1786 кбіт/с

Аудіо # 1:
мова: українська
переклад: двоголосий закадровий | Студія 1+1
ролі озвучили: Олександр Завальський і Лідія Муращенко
кодек: 5.1
бітрейт: 448 кбіт/с
примітка: з цим озвученням фільм транслювався також по та

Аудіо # 2:
мова: англійська
переклад: оригінал
кодек: 5.1
бітрейт: 384 кбіт/с

Субтитри:
мова: українська - завантажити
тип: програмні (м'які)
формат: *.srt

Субтитри:
мова: англійська - завантажити
тип: програмні (м'які)
формат: *.srt
MediaInfo
Код:
General
Complete name               : The Pacifier (2005) [Ukr,Eng] [Hurtom&HQClub].avi
Format                      : AVI
Format/Info                 : Audio Video Interleave
File size                   : 1.75 GiB
Duration                    : 1h 35mn
Overall bit rate            : 2 632 Kbps
Movie name                  : Лиса нянька / The Pacifier (2005) [Ukr,Eng] [Hurtom&HQClub]
Director                    : igor911 & kingsize87
Writing application         : VirtualDubModRus 1.5.10.2 (build 2540/release)
Writing library             : VirtualDubMod build 2540/release
Copyright                   : https://toloka.to/t72520
Comment                     : 18.03.2016

Video
ID                          : 0
Format                      : MPEG-4 Visual
Format profile              : Advanced [email protected]
Format settings, BVOP       : 1
Format settings, QPel       : No
Format settings, GMC        : No warppoints
Format settings, Matrix     : Custom
Muxing mode                 : Packed bitstream
Codec ID                    :
Codec ID/Hint               :
Duration                    : 1h 35mn
Bit rate                    : 1 786 Kbps
Width                       : 720 pixels
Height                      : 304 pixels
Display aspect ratio        : 2.35:1
Frame rate                  : 23.976 fps
Color space                 : YUV
Chroma subsampling          : 4:2:0
Bit depth                   : 8 bits
Scan type                   : Progressive
Compression mode            : Lossy
Bits/(Pixel*Frame)          : 0.340
Stream size                 : 1.19 GiB (68%)
Writing library             : 1.2.1 (UTC 2008-12-04)

Audio #1
ID                          : 1
Format                      : AC-3
Format/Info                 : Audio Coding 3
Mode extension              : CM (complete main)
Format settings, Endianness : Big
Codec ID                    : 2000
Duration                    : 1h 35mn
Bit rate mode               : Constant
Bit rate                    : 448 Kbps
Channel(s)                  : 6 channels
Channel positions           : Front: L C R, Side: L R, LFE
Sampling rate               : 48.0 KHz
Compression mode            : Lossy
Stream size                 : 306 MiB (17%)
Alignment                   : Split accross interleaves
Interleave, duration        : 42 ms (1.00 video frame)
Interleave, preload duratio : 500 ms
Title                       : Ukr DVO [1+1]

Audio #2
ID                          : 2
Format                      : AC-3
Format/Info                 : Audio Coding 3
Mode extension              : CM (complete main)
Format settings, Endianness : Big
Codec ID                    : 2000
Duration                    : 1h 35mn
Bit rate mode               : Constant
Bit rate                    : 384 Kbps
Channel(s)                  : 6 channels
Channel positions           : Front: L C R, Side: L R, LFE
Sampling rate               : 48.0 KHz
Compression mode            : Lossy
Stream size                 : 262 MiB (15%)
Alignment                   : Split accross interleaves
Interleave, duration        : 42 ms (1.00 video frame)
Interleave, preload duratio : 500 ms
Title                       : Eng [original]


Джерела та подяки: &
українська доріжка - _oles - зведення, drakon87, urij546724 - запис з ТБ; українські субтитри - _oles, українізований постер - Bovich, igor911; фільмографії акторів та інформація про озвучення - Віктор (всі - Гуртом).


 Трекер:    Зареєстрований   

Завантажити / скачати фільм українською



відео для новачків



 Зареєстрований:   2016-03-18 13:14
 Розмір:   1.75 GB 
 Оцінка фільму:   6.6/10 (Голосів: 29)
   
Інші релізи
   Лиса нянька / The Pacifier (2005) 720p Ukr/Eng | Sub Ukr/Eng igor911  3 / 0   5.24 GB   2016-03-18 15:50 
Anonymous 







2016-03-18 16:29  
Ось також реліз у 720p
vas75 
Новенький


З нами з: 14.05.09
Востаннє: 26.11.16
Повідомлень: 13

2016-10-09 15:50  
Доброго дня.
Не розумію чому не підключаються субтитри?

Anonymous 







2016-10-09 15:54  
vas75, бо їх треба завантажити в одну папку з фільмом.
Ваш часовий пояс: GMT + 2 Години

Нова тема   Відповісти