Завантажити та скачати торренти українською


На гребені хвилі / Point Break (2015) 1080p 3D [Half OverUnder] Ukr/Eng

Нові коментарі

Нова тема   Відповісти
Автор Повідомлення
-VipeR- 
VIP


З нами з: 17.07.08
Востаннє: 05.12.16
Повідомлень: 275

2016-03-17 13:08  
На гребені хвилі / Point Break (2015) 1080p 3D [Half OverUnder] Ukr/Eng


Жанр: екшн, кримінальний, спорт
Країна: США , Німеччина, Китай



Кінокомпанія: Alcon Entertainment, DMG Entertainment, Ehman Productions
Режисер: Еріксон Кор
Актори: Люк Брейсі, Едґар Рамірес, Тереза Палмер, Макс Тіріот, Рей Вінстон, Тобіас Зантельман, Джеймс Леґрос, Делрой Ліндо, Боджессі Крістофер, Клеменс Шик

Сюжет:
Джонні - молодий аґент ФБР, що спеціалізується на роботі під прикриттям. Він не раз виходив з найскладніших ситуацій, завжди доробляючи свою роботу до кінця. Його черговим завданням стає проникнення в банду злодіїв. Однак ці люди не звичайні грабіжники: їхньою головною відмінністю від інших є захоплення екстремальними видами спорту. Свої вміння вони використовують при кожному новому пограбуванні, і стати частиною їхньої команди дуже непросто. Щоб увійти в банду і зупинити злочинців, Джонні доведеться довести, що він такий як вони, а для цього йому не раз доведеться ризикнути власним життям...


Тривалість: 01:53:50
Якість: 1080p 3D [HalfOverUnder] [crop]
Відео:
кодек:
розмір кадру: 1920 х 1080
бітрейт: 15 Мб/с
Зліва і справа обрізано по 248 пікселів, для перегляду на звичайних тв без чорних смуг

Аудіо # 1:
мова: українська
переклад: професійний дубльований
кодек: 2.0
бітрейт: 192 кб/с
Інформація про дубляж

Переклад: Тетяни Кислої
Режисер дубляжу: Людмила Петриченко
Звукорежисер: Геннадій Алексєєв
Звукорежисер перезапису: Максим Пономарчук
Ролі дублювали: Дмитро Гаврилов, Роман Чорний, Кирило Нікітенко, Євген Пашин, Роман Семисал, Олександр Шевчук, Наталя Денисенко, Дмитро Терещук, Андрій Альохін та інші.
Фільм дубльовано компанією Postmodern.
Аудіо # 2:
мова: англійська
переклад: оригінал
кодек: 5.1
бітрейт: 640 кб/с
MediaInfo
Код:
General
Unique ID                      : 194660712032410935339318366526617903670 (0x92724A1813E233C982DDDDDCED3B6236)
Complete name                  : D:\3D\Художні\Point Break (2015) 1080p 3D [HalfOverUnder] crop [Ukr, Eng] [Hurtom] .mkv
Format                         : Matroska
Format version                 : Version 4 / Version 2
File size                      : 12.6 GiB
Duration                       : 1h 53mn
Overall bit rate mode          : Variable
Overall bit rate               : 15.8 Mbps
Movie name                     : POINT_BREAK.Title98
Encoded date                   : UTC 2016-03-17 10:00:42
Writing application            : mkvmerge v8.8.0 ('Wind at my back') 64bit
Writing library                : libebml v1.3.3 + libmatroska v1.4.4
Attachments                    : poster.jpg

Video
ID                             : 1
Format                         : AVC
Format/Info                    : Advanced Video Codec
Format profile                 : [email protected]
Format settings, CABAC         : Yes
Format settings, ReFrames      : 2 frames
Format settings, GOP           : M=3, N=24
Codec ID                       : V_MPEG4/ISO/AVC
Duration                       : 1h 53mn
Bit rate mode                  : Variable
Bit rate                       : 15.0 Mbps
Maximum bit rate               : 20.9 Mbps
Width                          : 1 920 pixels
Height                         : 1 080 pixels
Display aspect ratio           : 16:9
Frame rate mode                : Constant
Frame rate                     : 23.976 (24000/1001) fps
Color space                    : YUV
Chroma subsampling             : 4:2:0
Bit depth                      : 8 bits
Scan type                      : Progressive
Bits/(Pixel*Frame)             : 0.302
Stream size                    : 11.9 GiB (95%)
Default                        : Yes
Forced                         : No
Color range                    : Limited
Color primaries                : BT.709
Transfer characteristics       : BT.709
Matrix coefficients            : BT.709

Audio #1
ID                             : 2
Format                         : AC-3
Format/Info                    : Audio Coding 3
Mode extension                 : CM (complete main)
Format settings, Endianness    : Big
Codec ID                       : A_AC3
Duration                       : 1h 53mn
Bit rate mode                  : Constant
Bit rate                       : 192 Kbps
Channel(s)                     : 2 channels
Channel positions              : Front: L R
Sampling rate                  : 48.0 KHz
Frame rate                     : 31.250 fps (1536 spf)
Compression mode               : Lossy
Stream size                    : 156 MiB (1%)
Title                          : iTunes
Language                       : Ukrainian
Default                        : Yes
Forced                         : No

Audio #2
ID                             : 3
Format                         : AC-3
Format/Info                    : Audio Coding 3
Mode extension                 : CM (complete main)
Format settings, Endianness    : Big
Codec ID                       : A_AC3
Duration                       : 1h 53mn
Bit rate mode                  : Constant
Bit rate                       : 640 Kbps
Channel(s)                     : 6 channels
Channel positions              : Front: L C R, Side: L R, LFE
Sampling rate                  : 48.0 KHz
Frame rate                     : 31.250 fps (1536 spf)
Compression mode               : Lossy
Stream size                    : 521 MiB (4%)
Language                       : English
Default                        : No
Forced                         : No

Menu
00:00:00.000                   : en:(01)00:00:00:000
00:10:11.819                   : en:(02)00:10:11:819
00:21:05.138                   : en:(03)00:21:05:138
00:29:20.925                   : en:(04)00:29:20:925
00:42:44.895                   : en:(05)00:42:44:895
00:50:05.794                   : en:(06)00:50:05:794
01:03:19.462                   : en:(07)01:03:19:462
01:12:43.942                   : en:(08)01:12:43:942
01:20:40.418                   : en:(09)01:20:40:418
01:27:14.520                   : en:(10)01:27:14:520
01:32:44.350                   : en:(11)01:32:44:350
01:39:02.603                   : en:(12)01:39:02:603
01:53:50.657                   : en:(13)01:53:50:657
Скріншоти
Джерело: &
Особиста оцінка: 8 - мені сподобалося

Подяка пану Vasua95 за українську доріжку.

Відео для перегляду на 3D обладнанні!


 Трекер:    Зареєстрований   

Завантажити / скачати фільм українською



відео для новачків



 Зареєстрований:   2016-03-17 13:08
 Розмір:   12.6 GB 
 Оцінка фільму:   7.1/10 (Голосів: 12)
   
Інші релізи
   На гребені хвилі / Point Break (2015) 1080p Ukr/Eng |Sub Eng 11FrYkT  2 / 0   12.74 GB   2016-03-17 18:03 
   На гребені хвилі / Point Break (2015) 720p Ukr/Eng |Sub Eng 11FrYkT  8 / 0   5.77 GB   2016-03-17 18:01 
   На гребені хвилі / Point Break (2015) Covenant  14 / 0   1.45 GB   2016-03-17 13:33 
   На гребені хвилі / Point Break (2015) AVC Gelios  9 / 0   1.83 GB   2016-03-17 01:02 
nersesyanarmen 
Новенький


З нами з: 20.03.15
Востаннє: 05.12.16
Повідомлень: 8

2016-03-18 09:18  
Як на мене то краще дивитися оригінальну картинку ніж обрізану. Не буду завантажувати.
poluvaniyk-a-s 
Новенький


З нами з: 10.03.12
Востаннє: 05.12.16
Повідомлень: 9

2016-03-18 17:17  
Народ, поважаю ваш труд. але погоджусь з тим що нічого обрізати не треба. на звичайних тв є функція масштабування і той хто хоче - спокійно сам собі трішки збільшить картинку і дивитеметься без чорних смуг. але більшість вже звикли до них, і 3D краще виглядає коли картинка повна. тому краще не обрізати. хай користувач обирає сам дивитись йому з чорними смугами чи без
Tyler 
Новенький


З нами з: 24.03.09
Востаннє: 05.09.16
Повідомлень: 21

2016-03-19 18:20  
Цілком згоден з думками вище.
-VipeR- 
VIP


З нами з: 17.07.08
Востаннє: 05.12.16
Повідомлень: 275

2016-03-19 21:35  
poluvaniyk-a-s
3D якраз сприймається краще коли на весь екран, майже половина корисної площі екрану пустує. Мене дратує, мабуть ніколи не звикну.

Можна ж в нормальному співвідношенні знімати, як "Людину-Мураху" чи "У серці моря"...

jloohatik 
Новенький


З нами з: 10.09.11
Востаннє: 06.12.16
Повідомлень: 19

2016-03-26 23:49  
Єдиний реліз у 3д і той обрізаний... нащо псувати стрічку, якщо люди захочуть то можуть відобразити на повний екран
Ваш часовий пояс: GMT + 2 Години

Нова тема   Відповісти