Завантажити та скачати торренти українською


Венді Ву: Королева воїнів / Wendy Wu: Homecoming Warrior (2006) Ukr/Eng

Нові коментарі

Нова тема   Відповісти
Автор Повідомлення
salandr 
Відео Гуртом - фільмокрай
Відео Гуртом - фільмокрай


З нами з: 14.10.12
Востаннє: 30.11.16
Повідомлень: 63

2016-03-16 14:33  
Венді Ву: Королева воїнів / Wendy Wu: Homecoming Warrior (2006) Ukr/Eng

Венді Ву: Королева воїнів / Wendy Wu: Homecoming Warrior (2006) Ukr/Eng


Жанр: бойовик, сімейний
Країна: США



Кінокомпанія: Disney Channel
Режисер: Джон Ленг
Актори: Бренда Сонг, Шин Коямада, Сьюзен Чуенг, Джастин Чон

Сюжет:
Венді By мріє стати королевою випускного балу, але незабаром дізнається, що повинна врятувати світ, бо в минулому житті вона була великим китайським воїном. Її наставником стає чернець Чен, що виконує таємне доручення ордена буддистів, він повинен підготувати By до сутички з силами зла, щоб уберегти світ від катастрофи на наступні 90 років ...


Тривалість: 01:30:32
Якість:
Відео:
кодек:
розмір кадру: 704 х 528
бітрейт: 1961 кб/с

Аудіо # 1:
мова: українська
переклад: багатоголосий закадровий
кодек: 2.0
бітрейт: 192 кб/с

Аудіо # 2:
мова: англійська
переклад: оригінал
кодек: 2.0
бітрейт: 128 кб/с

Джерело озвучення:
Про фільм
У ніч прем'єри кількість глядачів фільму склало 5.7 мільйонів, що зробило фільм п'ятим за кількістю переглядів. Фільм також отримав вищий рейтинг на каналі Disney Channel Japan. Також «Венді Ву» побила рекорди в Великобританії і в Європі, зробивши канал Дісней найпопулярнішим дитячим каналом в Європі. Майже всі сцени знімалися в Окленді, Нова Зеландія. Для реклами Дісней випустив кілька товарів, заснованих на фільмі.
MediaInfo
General
Complete name : Wendy Wu Homecoming Warrior (2006) [ Ukr Eng].avi
Format : AVI
Format/Info : Audio Video Interleave
File size : 1.45 GiB
Duration : 1h 30mn
Overall bit rate : 2 295 Kbps
Writing application : VirtualDubMod 1.5.10.2 (build 2540/release)
Writing library : VirtualDubMod build 2540/release

Video
ID : 0
Format : MPEG-4 Visual
Format profile : Advanced [email protected]
Format settings, BVOP : 1
Format settings, QPel : No
Format settings, GMC : No warppoints
Format settings, Matrix : Custom
Codec ID :
Codec ID/Hint :
Duration : 1h 30mn
Bit rate : 1 961 Kbps
Width : 704 pixels
Height : 528 pixels
Display aspect ratio : 4:3
Frame rate : 23.976 fps
Color space : YUV
Chroma subsampling : 4:2:0
Bit depth : 8 bits
Scan type : Progressive
Compression mode : Lossy
Bits/(Pixel*Frame) : 0.220
Stream size : 1.24 GiB (85%)
Writing library : 1.2.1 (UTC 2008-12-04)

Audio #1
ID : 1
Format : AC-3
Format/Info : Audio Coding 3
Mode extension : CM (complete main)
Format settings, Endianness : Big
Codec ID : 2000
Duration : 1h 30mn
Bit rate mode : Constant
Bit rate : 192 Kbps
Channel(s) : 2 channels
Channel positions : Front: L R
Sampling rate : 48.0 KHz
Bit depth : 16 bits
Compression mode : Lossy
Stream size : 124 MiB (8%)
Alignment : Split accross interleaves
Interleave, duration : 42 ms (1.00 video frame)
Interleave, preload duration : 500 ms

Audio #2
ID : 2
Format : AC-3
Format/Info : Audio Coding 3
Mode extension : CM (complete main)
Format settings, Endianness : Big
Codec ID : 2000
Duration : 1h 30mn
Bit rate mode : Constant
Bit rate : 128 Kbps
Channel(s) : 2 channels
Channel positions : Front: L R
Sampling rate : 48.0 KHz
Bit depth : 16 bits
Compression mode : Lossy
Stream size : 82.9 MiB (6%)
Alignment : Split accross interleaves
Interleave, duration : 42 ms (1.00 video frame)
Interleave, preload duration : 500 ms
Скріншоти











Фільм не має чотири хвилини перекладу із 01:03:05 по 01:06:55 - замінено оригіналом.


 Трекер:    Зареєстрований   

Завантажити / скачати фільм українською



відео для новачків



 Зареєстрований:   2016-03-16 23:16
 Розмір:   1.45 GB 
 Оцінка фільму:   7.8/10 (Голосів: 4)
   
Інші релізи
xslim 
Відео Гуртом - фільмокрай
Відео Гуртом - фільмокрай


З нами з: 04.03.09
Востаннє: 09.12.16
Повідомлень: 790

2016-03-17 09:38  
Є кращий реліз даного фільму http://toloka.to/t72496
Тож у смітник цей реліз.

Hulk1987 
Модератор відео


З нами з: 14.02.09
Востаннє: 10.10.16
Повідомлень: 1306

2016-03-17 10:06  
А де рілізер?

Додано через 36 секунд:

xslim
Твій реліз буде тут, як і цей.

salandr 
Відео Гуртом - фільмокрай
Відео Гуртом - фільмокрай


З нами з: 14.10.12
Востаннє: 30.11.16
Повідомлень: 63

2016-03-17 10:17  
xslim
Там 16:9 зі значком каналу - тут 4:3 чистий .
Що краще - питання відносне - нехай визначає народ, що собі качати.

igor911 
Відео Гуртом
Відео Гуртом


З нами з: 18.01.08
Востаннє: 09.12.16
Повідомлень: 5202

2016-03-17 10:30  
xslim, різна якість наповнення кадру, повинні бути обидва релізи. І відколи це став кращий 'а?
xslim 
Відео Гуртом - фільмокрай
Відео Гуртом - фільмокрай


З нами з: 04.03.09
Востаннє: 09.12.16
Повідомлень: 790

2016-03-17 10:30  
В даному випадку мій зі значком каналу кращий за
Ваш часовий пояс: GMT + 2 Години

Нова тема   Відповісти