Завантажити та скачати торренти українською


Життя / Довічно! / Life (1999) 720p 2xUkr/Eng | Sub Eng

Нові коментарі

Нова тема   Відповісти
Автор Повідомлення
Anonymous 







2016-03-15 17:50  
Життя / Довічно! / Life (1999) 720p 2xUkr/Eng | Sub Eng



Альтернативний постер



Жанр: драма, кримінальний, комедія
Країна: США



Кінокомпанія: Imagine Entertainment, Universal Pictures
Режисер: Тед Демме / Ted Demme
Актори: Еді Мерфі / Eddie Murphy, Мартін Лоуренс / Martin Lawrence, Нік Кассаветес / Nick Cassavetes, Ентоні Андерсон / Anthony Anderson, Берні Мак / Bernie Mac, Нед Бітті / Ned Beatty, Обба Бабатунде / Obba Babatundé, Беррі Шебака Генлі / Barry Shabaka Henley, Брент Дженнінгс / Brent Jennings, Ной Еммеріх / Noah Emmerich та інші

Сюжет:
Нью-Йорк, 1932 рік. Сухий закон загнав доброчесних, але пристрасно охочих випити громадян в підпільні питущі заклади. У одному з таких притонів і перетнулися доріжки дрібного злодюжки Рея Гібсона і банківського працівника-невдахи Клода Бенкса.
По фатальному збігу обставин Рей і Клод не догодили місцевому босові мафії і влипли у великі неприємності. Щоб реабілітуватися перед розгніваним бандитом, приятелі погодилися перегнати набиту спиртним вантажівку з штату Міссісіпі в Нью - Йорк. Але по дорозі їх заарештували, незаконно звинуватили у вбивстві і засудили до довічного ув'язнення в місцевій колонії суворого режиму...


Тривалість: 01:48:30
Якість: 720p
Відео:
кодек:
розмір кадру: 1280 х 694
бітрейт: 5533 кбіт/с [crf=16.5]

Аудіо # 1:
мова: українська
переклад: двоголосий закадровий
ролі озвучили: Олег Лепенець і Олена Яблучна
кодек: 5.1
бітрейт: 1510 кбіт/с
примітка:
HDClub написано:
доріжку отримано накладанням чистих голосів акторів озвучення на центральний канал оригінального -HD MA


Аудіо # 2: =
мова: українська
переклад: багатоголосий закадровий
ролі озвучили: Олег Стальчук, Роман Семисал, Дмитро Гаврилов і Олена Яблучна
кодек: 2.0
бітрейт: 192 кбіт/с

Аудіо # 3:
мова: англійська
переклад: оригінал
кодек: 5.1
бітрейт: 640 кбіт/с

Субтитри:
мова: англійська (повні, SDH)
тип: програмні (м'які)
формат: *.srt

Збережено оригінальні розділи, як на Blu-ray.
MediaInfo
Код:
Complete name               : Life (1999) [2xUkr,Eng sub.Eng] 720p [Hurtom&HDClub].mkv
Format                      : Matroska
Format version              : Version 4 / Version 2
File size                   : 6.09 GiB
Duration                    : 1h 48mn
Overall bit rate            : 8 035 Kbps
Movie name                  : Життя / Довічно! / Life (1999) [2xUkr,Eng sub.Eng] 720p [Hurtom&HDClub] by igor911
Encoded date                : UTC 2016-03-13 21:05:03
Writing application         : mkvmerge v8.9.0 ('Father Daughter') 64bit
Writing library             : libebml v1.3.3 + libmatroska v1.4.4
Attachements                : cover.jpg
DURATION                    : 01:48:30.272000000
NUMBER_OF_FRAMES            : 610338
NUMBER_OF_BYTES             : 1228610394
_STATISTICS_WRITING_APP     : mkvmerge v8.9.0 ('Father Daughter') 64bit
_STATISTICS_WRITING_DATE_UT : 2016-03-13 21:05:03
_STATISTICS_TAGS            : BPS DURATION NUMBER_OF_FRAMES NUMBER_OF_BYTES

Video
ID                          : 1
Format                      : AVC
Format/Info                 : Advanced Video Codec
Format profile              : [email protected]
Format settings, CABAC      : Yes
Format settings, ReFrames   : 9 frames
Codec ID                    : V_MPEG4/ISO/AVC
Duration                    : 1h 48mn
Bit rate                    : 5 533 Kbps
Width                       : 1 280 pixels
Height                      : 694 pixels
Display aspect ratio        : 1.85:1
Frame rate mode             : Constant
Frame rate                  : 23.976 fps
Color space                 : YUV
Chroma subsampling          : 4:2:0
Bit depth                   : 8 bits
Scan type                   : Progressive
Bits/(Pixel*Frame)          : 0.260
Stream size                 : 4.19 GiB (69%)
Title                       : Життя / Довічно! / Life (1999) 720p [HDClub-SbR]
Writing library             : core 148 r2638+53 bb29004 t_mod_Custom [[email protected] X86_64]
Encoding settings           : cabac=1 / ref=9 / deblock=1:-3:-3 / analyse=0x3:0x133 / me=umh / subme=11 / psy=1 / fade_compensate=0.00 / psy_rd=1.00:0.05 / mixed_ref=1 / me_range=24 / chroma_me=1 / trellis=2 / 8x8dct=1 / cqm=0 / deadzone=21,11 / fast_pskip=0 / chroma_qp_offset=-3 / threads=6 / lookahead_threads=1 / sliced_threads=0 / nr=0 / decimate=1 / interlaced=0 / bluray_compat=0 / constrained_intra=0 / fgo=0 / bframes=11 / b_pyramid=2 / b_adapt=2 / b_bias=0 / direct=3 / weightb=1 / open_gop=0 / weightp=2 / keyint=250 / keyint_min=23 / scenecut=40 / intra_refresh=0 / rc_lookahead=60 / rc=crf / mbtree=0 / crf=16.5000 / qcomp=0.60 / qpmin=0:0:0 / qpmax=69:69:69 / qpstep=4 / vbv_maxrate=62500 / vbv_bufsize=78125 / crf_max=0.0 / nal_hrd=none / filler=0 / ip_ratio=1.30 / pb_ratio=1.20 / aq=1:0.65 / aq-sensitivity=10.00 / aq-factor=1.00:1.00:1.00 / aq2=0 / aq3=0
Language                    : English
Default                     : Yes
Forced                      : No
Color range                 : Limited
Color primaries             : BT.709
Transfer characteristics    : BT.709
Matrix coefficients         : BT.709
DURATION                    : 01:48:30.254000000
NUMBER_OF_FRAMES            : 156090
NUMBER_OF_BYTES             : 4629677275
_STATISTICS_WRITING_APP     : mkvmerge v8.9.0 ('Father Daughter') 64bit
_STATISTICS_WRITING_DATE_UT : 2016-03-13 21:05:03
_STATISTICS_TAGS            : BPS DURATION NUMBER_OF_FRAMES NUMBER_OF_BYTES

Audio #1
ID                          : 2
Format                      :
Format/Info                 : Digital Theater Systems
Mode                        : 16
Format settings, Endianness : Big
Codec ID                    : A_DTS
Duration                    : 1h 48mn
Bit rate mode               : Constant
Bit rate                    : 1 510 Kbps
Channel(s)                  : 6 channels
Channel positions           : Front: L C R, Side: L R, LFE
Sampling rate               : 48.0 KHz
Bit depth                   : 24 bits
Compression mode            : Lossy
Stream size                 : 1.14 GiB (19%)
Title                       : DVO [Novyj] 5.1 1510 kbps [HDClub]
Language                    : Ukrainian
Default                     : Yes
Forced                      : No

Audio #2
ID                          : 3
Format                      : AC-3
Format/Info                 : Audio Coding 3
Mode extension              : CM (complete main)
Format settings, Endianness : Big
Codec ID                    : A_AC3
Duration                    : 1h 48mn
Bit rate mode               : Constant
Bit rate                    : 192 Kbps
Channel(s)                  : 2 channels
Channel positions           : Front: L R
Sampling rate               : 48.0 KHz
Compression mode            : Lossy
Stream size                 : 149 MiB (2%)
Title                       : MVO [NLO,Ukraina] 2.0 192 kbps [Hurtom-Sando7,РОМЕО]
Language                    : Ukrainian
Default                     : No
Forced                      : No

Audio #3
ID                          : 4
Format                      : AC-3
Format/Info                 : Audio Coding 3
Mode extension              : CM (complete main)
Format settings, Endianness : Big
Codec ID                    : A_AC3
Duration                    : 1h 48mn
Bit rate mode               : Constant
Bit rate                    : 640 Kbps
Channel(s)                  : 6 channels
Channel positions           : Front: L C R, Side: L R, LFE
Sampling rate               : 48.0 KHz
Compression mode            : Lossy
Stream size                 : 497 MiB (8%)
Title                       : Original 5.1 640 kbps
Language                    : English
Default                     : No
Forced                      : No

Text #1
ID                          : 5
Format                      : UTF-8
Codec ID                    : S_TEXT/UTF8
Codec ID/Info               : UTF-8 Plain Text
Title                       : Eng full
Language                    : English
Default                     : No
Forced                      : No

Text #2
ID                          : 6
Format                      : UTF-8
Codec ID                    : S_TEXT/UTF8
Codec ID/Info               : UTF-8 Plain Text
Title                       : Eng SDH
Language                    : English
Default                     : No
Forced                      : No

Menu
00:00:00.000                : en:00:00:00.000
00:02:24.769                : en:00:02:24.769
00:04:01.532                : en:00:04:01.532
00:08:24.252                : en:00:08:24.252
00:11:23.182                : en:00:11:23.182
00:16:29.613                : en:00:16:29.613
00:25:46.294                : en:00:25:46.294
00:30:10.182                : en:00:30:10.182
00:38:33.476                : en:00:38:33.476
00:47:56.456                : en:00:47:56.456
00:51:09.356                : en:00:51:09.356
00:58:11.278                : en:00:58:11.278
01:05:45.148                : en:01:05:45.148
01:08:36.444                : en:01:08:36.444
01:18:16.483                : en:01:18:16.483
01:29:53.220                : en:01:29:53.220
01:36:42.296                : en:01:36:42.296
01:42:58.255                : en:01:42:58.255




Джерела та подяки: &
українська доріжка #1 - HDClub; українська доріжка #2 - Sando7 - зведення, РОМЕО - запис з ТБ; українізований постер - Ermolenko; фільмографії акторів та інформація про озвучення - Віктор, HETMAN1 (всі - Гуртом).






ЗАЛИШАЙТЕСЬ ЯКОМОГА ДОВШЕ НА РОЗДАЧІ!

СКАЧАВ САМ - ДАЙ СКАЧАТИ ІНШИМ


Срібний реліз (на рейтинг впливає 50% завантаженого)
 Трекер:    Зареєстрований   

Завантажити / скачати фільм українською



відео для новачків



 Зареєстрований:   2016-03-15 17:50
 Розмір:   6.09 GB 
 Оцінка фільму:   3.8/10 (Голосів: 16)
   
Інші релізи
   Життя / Довічно! / Life (1999) AVC 2xUkr/Eng Sando7  1 / 0   3.01 GB   2015-02-23 18:18 
   Життя / Довічно! / Life (1999) 2xUkr NemoInFire  2 / 0   1.88 GB   2011-09-28 21:43 
KoljaLevko 
Частий відвідувач


З нами з: 29.03.10
Востаннє: 03.12.16
Повідомлень: 47

2016-05-02 20:42  
хороший фільм
boroznaya 
VIP


З нами з: 02.11.12
Востаннє: 03.12.16
Повідомлень: 1868

2016-11-20 09:45  
Чесно кажучи, не побажала б і ворогу потрапити у таку ситуацію, в якій опинились головні герої. Життя - дорога річ, а коли його у тебе забирають, це жахливо. Фільм повинен побачити кожен, хоча б один раз. Спасибі за реліз.
Ваш часовий пояс: GMT + 2 Години

Нова тема   Відповісти