Завантажити та скачати торренти українською


Води слонам! / Water for Elephants (2011) 720p Ukr/Eng | Sub Ukr/Eng

Нові коментарі

Нова тема   Відповісти
Автор Повідомлення
Anonymous 







2016-03-15 12:01  
Води слонам! / Water for Elephants (2011) 720p Ukr/Eng | Sub Ukr/Eng



Жанр: драма, романтичний
Країна: США



Кінокомпанія: Fox 2000 Pictures, 3 Arts Entertainment, Flashpoint Entertainment, Dune Entertainment, Ingenious Media, Big Screen Productions, Netter Productions
Режисер: Френсіс Лоуренс / Francis Lawrence
Актори: Роберт Патінсон / Robert Pattinson, Різ Візерспун / Reese Witherspoon, Крістоф Вальц / Christoph Waltz, Пол Шнайдер / Paul Schneider, Джим Нортон / Jim Norton, Гел Голбрук / Hal Holbrook, Марк Повінеллі / Mark Povinelli, Річард Брейк / Richard Brake, Стівен Тейлор / Stephen Monroe Taylor, Кен Форі / Ken Foree та інші

Сюжет:
Часи Великої депресії. Студент-ветеринар Джейкоб кидає навчання після того, як його батьки гинуть, і приєднується до "Benzini Brothers", найґрандіознішого циркового шоу на Землі. Там він починає працювати ветеринаром, а заодно і закохується в прекрасну наїзницю Марлену, яка одружена з Авґустом, харизматичним, але жорстоким дресирувальником.


Рейтинг MPAA: PG-13 - дітям до 13 років перегляд не бажаний
Вікова категорія: 12+

Тривалість: 02:00:29
Якість: 720p
Відео:
кодек:
розмір кадру: 1280 х 544
бітрейт: 4325 кбіт/с [crf=17]

Аудіо # 1:
мова: українська
переклад: професійний дубльований
кодек: 2.0
бітрейт: 192 кбіт/с

Аудіо # 2:
мова: англійська
переклад: оригінал
кодек: 5.1
бітрейт: 1509 кбіт/с

Аудіо # 3:
мова: англійська
переклад: коментарі режисера Френсіса Лоуренса та сценариста Річарда ЛаГравенеса
кодек: 2.0
бітрейт: 224 кбіт/с

Субтитри # 1:
мова: українська (повні)
тип: програмні (м'які)
формат: *.srt

Субтитри # 2-3:
мова: англійська (повні, коментарі)
тип: програмні (м'які)
формат: *.srt

Збережено оригінальні розділи, як на Blu-ray.
MediaInfo
Код:
Complete name               : Water for Elephants (2011) [Ukr,Eng sub.Ukr.Eng] 720p [Hurtom&HDClub].mkv
Format                      : Matroska
Format version              : Version 4 / Version 2
File size                   : 5.37 GiB
Duration                    : 2h 0mn
Overall bit rate            : 6 377 Kbps
Movie name                  : Води слонам! / Water for Elephants (2011) [Ukr,Eng sub.Ukr.Eng] 720p [Hurtom&HDClub] by igor911
Encoded date                : UTC 2016-03-15 08:40:46
Writing application         : mkvmerge v8.9.0 ('Father Daughter') 64bit
Writing library             : libebml v1.3.3 + libmatroska v1.4.4
Attachements                : cover.jpg
DURATION                    : 01:52:31.328000000
NUMBER_OF_FRAMES            : 1180
NUMBER_OF_BYTES             : 69615
_STATISTICS_WRITING_APP     : mkvmerge v8.9.0 ('Father Daughter') 64bit
_STATISTICS_WRITING_DATE_UT : 2016-03-15 08:40:46
_STATISTICS_TAGS            : BPS DURATION NUMBER_OF_FRAMES NUMBER_OF_BYTES

Video
ID                          : 1
Format                      : AVC
Format/Info                 : Advanced Video Codec
Format profile              : [email protected]
Format settings, CABAC      : Yes
Format settings, ReFrames   : 10 frames
Codec ID                    : V_MPEG4/ISO/AVC
Duration                    : 2h 0mn
Bit rate                    : 4 325 Kbps
Width                       : 1 280 pixels
Height                      : 544 pixels
Display aspect ratio        : 2.35:1
Frame rate mode             : Constant
Frame rate                  : 23.976 fps
Color space                 : YUV
Chroma subsampling          : 4:2:0
Bit depth                   : 8 bits
Scan type                   : Progressive
Bits/(Pixel*Frame)          : 0.259
Stream size                 : 3.64 GiB (68%)
Title                       : Води слонам! / Water for Elephants (2011) 720p [HDClub]
Writing library             : core 116 r2057 0ba8a9c
Encoding settings           : cabac=1 / ref=10 / deblock=1:-3:-3 / analyse=0x3:0x133 / me=umh / subme=11 / psy=1 / psy_rd=1.00:0.00 / mixed_ref=1 / me_range=64 / chroma_me=1 / trellis=2 / 8x8dct=1 / cqm=0 / deadzone=21,11 / fast_pskip=0 / chroma_qp_offset=-2 / threads=9 / sliced_threads=0 / nr=0 / decimate=0 / interlaced=0 / bluray_compat=0 / constrained_intra=0 / bframes=9 / b_pyramid=2 / b_adapt=2 / b_bias=0 / direct=3 / weightb=1 / open_gop=0 / weightp=2 / keyint=250 / keyint_min=23 / scenecut=40 / intra_refresh=0 / rc_lookahead=40 / rc=crf / mbtree=0 / crf=17.0 / qcomp=0.60 / qpmin=0 / qpmax=69 / qpstep=4 / vbv_maxrate=50000 / vbv_bufsize=62500 / crf_max=0.0 / nal_hrd=none / ip_ratio=1.40 / pb_ratio=1.30 / aq=1:0.80
Language                    : English
Default                     : Yes
Forced                      : No
DURATION                    : 02:00:29.681000000
NUMBER_OF_FRAMES            : 173339
NUMBER_OF_BYTES             : 4019805138
_STATISTICS_WRITING_APP     : mkvmerge v8.9.0 ('Father Daughter') 64bit
_STATISTICS_WRITING_DATE_UT : 2016-03-15 08:40:46
_STATISTICS_TAGS            : BPS DURATION NUMBER_OF_FRAMES NUMBER_OF_BYTES

Audio #1
ID                          : 2
Format                      : AC-3
Format/Info                 : Audio Coding 3
Mode extension              : CM (complete main)
Format settings, Endianness : Big
Codec ID                    : A_AC3
Duration                    : 2h 0mn
Bit rate mode               : Constant
Bit rate                    : 192 Kbps
Channel(s)                  : 2 channels
Channel positions           : Front: L R
Sampling rate               : 48.0 KHz
Compression mode            : Lossy
Stream size                 : 165 MiB (3%)
Title                       : Dub [1+1] 2.0 192 kbps [Hurtom-Gelios,xslim]
Language                    : Ukrainian
Default                     : Yes
Forced                      : No

Audio #2
ID                          : 3
Format                      :
Format/Info                 : Digital Theater Systems
Mode                        : 16
Format settings, Endianness : Big
Codec ID                    : A_DTS
Duration                    : 2h 0mn
Bit rate mode               : Constant
Bit rate                    : 1 509 Kbps
Channel(s)                  : 6 channels
Channel positions           : Front: L C R, Side: L R, LFE
Sampling rate               : 48.0 KHz
Bit depth                   : 24 bits
Compression mode            : Lossy
Stream size                 : 1.27 GiB (24%)
Title                       : Original 5.1 1509 kbps
Language                    : English
Default                     : No
Forced                      : No

Audio #3
ID                          : 4
Format                      : AC-3
Format/Info                 : Audio Coding 3
Mode extension              : CM (complete main)
Format settings, Endianness : Big
Codec ID                    : A_AC3
Duration                    : 2h 0mn
Bit rate mode               : Constant
Bit rate                    : 224 Kbps
Channel(s)                  : 2 channels
Channel positions           : Front: L R
Sampling rate               : 48.0 KHz
Compression mode            : Lossy
Stream size                 : 193 MiB (4%)
Title                       : Commentary 2.0 224 kbps
Language                    : English
Default                     : No
Forced                      : No

Text #1
ID                          : 5
Format                      : UTF-8
Codec ID                    : S_TEXT/UTF8
Codec ID/Info               : UTF-8 Plain Text
Title                       : Ukr full
Language                    : Ukrainian
Default                     : No
Forced                      : No

Text #2
ID                          : 6
Format                      : UTF-8
Codec ID                    : S_TEXT/UTF8
Codec ID/Info               : UTF-8 Plain Text
Title                       : Eng full
Language                    : English
Default                     : No
Forced                      : No

Text #3
ID                          : 7
Format                      : UTF-8
Codec ID                    : S_TEXT/UTF8
Codec ID/Info               : UTF-8 Plain Text
Title                       : Commentary
Language                    : English
Default                     : No
Forced                      : No

Menu
00:00:00.000                : en:00:00:00.000
00:05:25.825                : en:00:05:25.825
00:08:15.077                : en:00:08:15.077
00:10:02.977                : en:00:10:02.977
00:13:42.738                : en:00:13:42.738
00:18:24.978                : en:00:18:24.978
00:20:22.763                : en:00:20:22.763
00:22:19.755                : en:00:22:19.755
00:25:11.843                : en:00:25:11.843
00:30:06.846                : en:00:30:06.846
00:34:35.156                : en:00:34:35.156
00:38:03.447                : en:00:38:03.447
00:40:36.392                : en:00:40:36.392
00:45:15.379                : en:00:45:15.379
00:50:16.138                : en:00:50:16.138
00:54:12.999                : en:00:54:12.999
00:56:34.641                : en:00:56:34.641
01:00:12.483                : en:01:00:12.483
01:02:23.406                : en:01:02:23.406
01:05:52.406                : en:01:05:52.406
01:08:27.561                : en:01:08:27.561
01:12:49.615                : en:01:12:49.615
01:19:17.002                : en:01:19:17.002
01:21:20.292                : en:01:21:20.292
01:26:42.405                : en:01:26:42.405
01:28:47.488                : en:01:28:47.488
01:35:06.617                : en:01:35:06.617
01:39:27.086                : en:01:39:27.086
01:41:46.100                : en:01:41:46.100
01:44:08.659                : en:01:44:08.659
01:49:50.875                : en:01:49:50.875
01:54:00.542                : en:01:54:00.542


Порівняння скріншотів
Оригінал <----------> Ріп








Джерела та подяки: &
українська доріжка - Gelios - зведення, xslim - запис з ТБ; українізований постер - bilenkuyboy; фільмографії акторів та інформація про озвучення - Віктор, marinaV (всі - Гуртом).


ЗАЛИШАЙТЕСЬ ЯКОМОГА ДОВШЕ НА РОЗДАЧІ!
СКАЧАВ САМ - ДАЙ СКАЧАТИ ІНШИМ


 Трекер:    Зареєстрований   

Завантажити / скачати фільм українською



відео для новачків



 Зареєстрований:   2016-03-15 12:01
 Розмір:   5.37 GB 
 Оцінка фільму:   4.3/10 (Голосів: 18)
   
Інші релізи
Ваш часовий пояс: GMT + 2 Години

Нова тема   Відповісти