Завантажити та скачати торренти українською


Дивак / Oddball (2015) 720p Ukr/Eng | Sub Eng

Нові коментарі

Нова тема   Відповісти
Автор Повідомлення
Anonymous 







2016-03-15 00:53  
Дивак / Oddball (2015) 720p Ukr/Eng | Sub Eng



Альтернативний постер



Жанр: пригодницький, сімейний
Країна: Австралія



Кінокомпанія: Kmunications, The Film Company, WTFN Entertainment
Режисер: Стюарт Макдональд / Stuart McDonald
Актори: Шейн Джейкобсон, Сара Снук, Алан Тьюдік, Коко Джек Гілліс, Річард Дейвіс, Дебора Мейлмен та інші

Сюжет:
Постійні напади лисиць загрожують закриттям заповіднику малих пінгвінів на Середньому острові, що є головною туристичною принадою крихітного австралійського містечка Варрнамбул. Виправити ситуацію беруться ексцентричний фермер та його 9-річна онучка. І виявляється, що порятунок птахів – у лапах дуже капосного пса на ймення Дивак.


Рейтинг MPAA: PG - рекомендується присутність батьків
Вікова категорія: 6+

Тривалість: 01:35:09
Якість: 720p
Відео:
кодек:
розмір кадру: 1280 х 534
бітрейт: 6244 кбіт/с [crf=16.5]

Аудіо # 1:
мова: українська
переклад: одноголосий закадровий - Герман Лукич студіо - завантажити семпл
кодек: MP3
бітрейт: 192 кбіт/с

Аудіо # 2:
мова: англійська
переклад: оригінал
кодек: 5.1
бітрейт: 640 кбіт/с

Субтитри:
мова: англійська
тип: програмні (м'які)
формат: *.srt

Збережено оригінальні розділи, як на Blu-ray.
MediaInfo
Код:
Complete name               : Oddball (2015) [Ukr,Eng sub.Eng] 720p [Hurtom].mkv
Format                      : Matroska
Format version              : Version 4 / Version 2
File size                   : 4.70 GiB
Duration                    : 1h 35mn
Overall bit rate            : 7 075 Kbps
Movie name                  : Дивак / Oddball (2015) [Ukr,Eng sub.Eng] 720p [Hurtom-igor911]
Encoded date                : UTC 2016-03-12 12:43:52
Writing application         : mkvmerge v8.9.0 ('Father Daughter') 64bit
Writing library             : libebml v1.3.3 + libmatroska v1.4.4
Attachements                : cover.jpg

Video
ID                          : 1
Format                      : AVC
Format/Info                 : Advanced Video Codec
Format profile              : [email protected]
Format settings, CABAC      : Yes
Format settings, ReFrames   : 12 frames
Codec ID                    : V_MPEG4/ISO/AVC
Duration                    : 1h 35mn
Bit rate                    : 6 244 Kbps
Width                       : 1 280 pixels
Height                      : 534 pixels
Display aspect ratio        : 2.40:1
Frame rate mode             : Constant
Frame rate                  : 24.000 fps
Color space                 : YUV
Chroma subsampling          : 4:2:0
Bit depth                   : 8 bits
Scan type                   : Progressive
Bits/(Pixel*Frame)          : 0.381
Stream size                 : 4.15 GiB (88%)
Title                       : Дивак / Oddball (2015) 720p [HANDJOB]
Writing library             : core 142 r2479 dd79a61
Encoding settings           : cabac=1 / ref=12 / deblock=1:-3:-3 / analyse=0x3:0x113 / me=tesa / subme=11 / psy=1 / psy_rd=1.00:0.05 / mixed_ref=1 / me_range=16 / chroma_me=1 / trellis=2 / 8x8dct=1 / cqm=0 / deadzone=21,11 / fast_pskip=1 / chroma_qp_offset=-3 / threads=18 / lookahead_threads=1 / sliced_threads=0 / nr=0 / decimate=1 / interlaced=0 / bluray_compat=0 / constrained_intra=0 / bframes=16 / b_pyramid=2 / b_adapt=1 / b_bias=0 / direct=1 / weightb=1 / open_gop=0 / weightp=2 / keyint=240 / keyint_min=24 / scenecut=40 / intra_refresh=0 / rc_lookahead=40 / rc=crf / mbtree=0 / crf=16.5 / qcomp=0.65 / qpmin=0 / qpmax=69 / qpstep=4 / vbv_maxrate=62500 / vbv_bufsize=78125 / crf_max=0.0 / nal_hrd=none / filler=0 / ip_ratio=1.40 / pb_ratio=1.30 / aq=1:0.80
Language                    : English
Default                     : Yes
Forced                      : No
Color range                 : Limited
Color primaries             : BT.709
Transfer characteristics    : BT.709
Matrix coefficients         : BT.709

Audio #1
ID                          : 2
Format                      : MPEG Audio
Format version              : Version 1
Format profile              : Layer 3
Mode                        : Joint stereo
Mode extension              : MS Stereo
Codec ID                    : A_MPEG/L3
Codec ID/Hint               : MP3
Duration                    : 1h 35mn
Bit rate mode               : Constant
Bit rate                    : 192 Kbps
Channel(s)                  : 2 channels
Sampling rate               : 44.1 KHz
Frame rate                  : 38.281 fps (1152 spf)
Compression mode            : Lossy
Delay relative to video     : -62ms
Stream size                 : 130 MiB (3%)
Title                       : AVO [Herman Lukych studio] MP3 192 kbps [Hurtom-1101]
Language                    : Ukrainian
Default                     : Yes
Forced                      : No

Audio #2
ID                          : 3
Format                      : AC-3
Format/Info                 : Audio Coding 3
Mode extension              : CM (complete main)
Format settings, Endianness : Big
Codec ID                    : A_AC3
Duration                    : 1h 35mn
Bit rate mode               : Constant
Bit rate                    : 640 Kbps
Channel(s)                  : 6 channels
Channel positions           : Front: L C R, Side: L R, LFE
Sampling rate               : 48.0 KHz
Frame rate                  : 31.250 fps (1536 spf)
Compression mode            : Lossy
Delay relative to video     : -83ms
Stream size                 : 435 MiB (9%)
Title                       : Original 5.1 640 kbps
Language                    : English
Default                     : No
Forced                      : No

Text
ID                          : 4
Format                      : UTF-8
Codec ID                    : S_TEXT/UTF8
Codec ID/Info               : UTF-8 Plain Text
Duration                    : 1h 27mn
Bit rate                    : 69 bps
Count of elements           : 1392
Stream size                 : 44.4 KiB (0%)
Language                    : English
Default                     : No
Forced                      : No

Menu
00:00:00.000                : en:Chapter 1
00:04:15.958                : en:Chapter 2
00:12:03.875                : en:Chapter 3
00:17:03.250                : en:Chapter 4
00:22:26.333                : en:Chapter 5
00:28:04.792                : en:Chapter 6
00:34:28.542                : en:Chapter 7
00:41:31.750                : en:Chapter 8
00:46:31.417                : en:Chapter 9
00:53:37.500                : en:Chapter 10
00:59:49.333                : en:Chapter 11
01:06:43.500                : en:Chapter 12
01:12:01.417                : en:Chapter 13
01:18:03.208                : en:Chapter 14
01:23:17.167                : en:Chapter 15
01:28:12.667                : en:Chapter 16


Український трейлер


Джерела та подяки: &
українська доріжка - 1101

Особиста оцінка: 10 - рекомендую всім дітям та їх батькам


ЗАЛИШАЙТЕСЬ ЯКОМОГА ДОВШЕ НА РОЗДАЧІ!

СКАЧАВ САМ - ДАЙ СКАЧАТИ ІНШИМ


Авторський реліз (завантажувати можна без реєстрації)
 Трекер:    Зареєстрований   

Завантажити / скачати фільм українською



відео для новачків



 Зареєстрований:   2016-03-15 00:53
 Розмір:   4.7 GB 
 Оцінка фільму:   5.8/10 (Голосів: 26)
   
Інші релізи
   Дивак / Oddball (2015) НDRip Ukr/Eng 1101  10 / 0   824 MB   2016-03-14 23:27 
djneo 
Частий відвідувач


З нами з: 30.11.07
Востаннє: 10.12.16
Повідомлень: 28

2016-03-15 16:54  
Завантажу щоб роздавати, але дивитися з таким дубляжем на жаль не можливо Sad (1)
Anonymous 







2016-03-15 16:56  
djneo написано:
дивитися з таким дубляжем

Тут немає дубляжу. А любительська озвучка цілком пристойна, голос приємний, розбірливий, дикція добра.

VINRARUS 
Свій


З нами з: 16.11.11
Востаннє: 10.12.16
Повідомлень: 122

2016-03-18 16:01  
Класний добрий фільм. Порадували живі пінгвіни.
І нормальна озвучка, через пару хвилин перегляду не помічаєш що дівчинка говорить чоловічим голосом.

1101 
Свій


З нами з: 09.07.12
Востаннє: 24.11.16
Повідомлень: 62

2016-03-21 23:17  
igor911 написано:
А любительська озвучка цілком пристойна, голос приємний, розбірливий, дикція добра.

Дяка на добрім слові!
VINRARUS написано:
І нормальна озвучка, через пару хвилин перегляду не помічаєш що дівчинка говорить чоловічим голосом.

Скромно й задоволено мовчу!!! Wide grin

Форкуш 
VIP


З нами з: 03.02.10
Востаннє: 11.12.16
Повідомлень: 1548

2016-04-08 20:16  
Чудовий-пречудовий фільм і на реальних подіях. Всім сім’ям до перегляду. А ще, ці пси майже копія гуцульських вівчурів...
vitalyyt 
Новенький


З нами з: 29.10.13
Востаннє: 09.12.16
Повідомлень: 1

2016-04-16 19:00  
Давно не отримував такого задоволення від перегляду ,,сімейного" кіно. Дуже дякую.
Ваш часовий пояс: GMT + 2 Години

Нова тема   Відповісти