Завантажити та скачати торренти українською


Розлом Сан-Андреас / San Andreas (2015) Remux 1080p Ukr/Eng

Нові коментарі

Нова тема   Відповісти
Останній раз роздавалося umka1m (2016-08-04)
Автор Повідомлення
umka1m 
Новенький


З нами з: 06.03.15
Востаннє: 08.12.16
Повідомлень: 10

2016-03-14 12:52  
Розлом Сан-Андреас / San Andreas (2015) Remux 1080p Ukr/Eng



Жанр: екшн, драма, трилер
Країна: США, Австралія, Канада



Кінокомпанія: Warner Bros.
Режисер: Бред Пейтон / Brad Peyton
Актори: Двейн Джонсон / Dwayne Johnson, Александра Даддаріо / Alexandra Daddario, Карла Ґуджіно / Carla Gugino, Колтон Гейнс / Colton Haynes, Пол Джаматті / Paul Giamatti, Кайлі Міноуґ / Kylie Minogue, Ванесса Росс / Vanessa Ross, Вілл Юн Лі / Will Yun Lee

Сюжет:
Рей - пілот рятувального гелікоптера, який усе своє життя допомагав іншим людям. За весь час роботи він надивився на безліч моторошних речей і не раз опинявся в дуже складних ситуаціях. Незважаючи на всі перепони він поспішав на допомогу, навіть не припускаючи, що найстрашніше чекає його попереду. На Каліфорнію обрушується потужний землетрус, в результаті якого гинуть сотні людей і утворюється величезна тріщина в землі. У загальному хаосі Рею належить відшукати свою дочку, але зробити це буде дуже непросто. У надії, що його дитина все ще жива, він відправляється в смертельно небезпечну подорож через весь штат...


Тривалість: 01:54:28
Якість: Remux
Відео:
кодек:
розмір кадру: 1920x1080p
бітрейт: 23938 kbps

Аудіо # 1:
мова: англійська
переклад: оригінал
кодек: Dolby Atmos 7.1.4
бітрейт: 5329 кб/с 24bit / 48kHz

Аудіо # 2:
мова: українська
переклад: професійний дубльований
кодек: 5.1
бітрейт: 384 кб/с

Джерело озвучення:
MediaInfo
General
ID : 1 (0x1)
Complete name : F:\San Andreas BD-remux [hurtom] umka1m\BDMV\STREAM\00000.m2ts
Format : BDAV
Format/Info : Blu-ray Video
File size : 26.0 GiB
Duration : 1h 54mn
Overall bit rate mode : Variable
Overall bit rate : 32.5 Mbps
Maximum Overall bit rate : 35.5 Mbps

Video
ID : 4113 (0x1011)
Menu ID : 1 (0x1)
Format : AVC
Format/Info : Advanced Video Codec
Format profile : [email protected]
Format settings, CABAC : Yes
Format settings, ReFrames : 2 frames
Format settings, GOP : M=1, N=10
Codec ID : 27
Duration : 1h 54mn
Bit rate mode : Variable
Bit rate : 30.4 Mbps
Width : 1 920 pixels
Height : 1 080 pixels
Display aspect ratio : 16:9
Frame rate : 23.976 fps
Color space : YUV
Chroma subsampling : 4:2:0
Bit depth : 8 bits
Scan type : Progressive
Bits/(Pixel*Frame) : 0.612
Stream size : 24.3 GiB (94%)

Audio #1
ID : 4352 (0x1100)
Menu ID : 1 (0x1)
Format : TrueHD / AC-3
Mode extension : CM (complete main)
Format settings, Endianness : Big
Muxing mode : Stream extension
Codec ID : 131
Duration : 1h 54mn
Bit rate mode : Variable / Constant
Bit rate : 384 Kbps
Maximum bit rate : 8 760 Kbps
Channel(s) : 8 channels / 6 channels
Channel positions : Front: L C R, Side: L R, Back: L R, LFE / Front: L C R, Side: L R, LFE
Sampling rate : 48.0 KHz
Stream size : 314 MiB (1%)

Audio #2
ID : 4353 (0x1101)
Menu ID : 1 (0x1)
Format : AC-3
Format/Info : Audio Coding 3
Mode extension : CM (complete main)
Format settings, Endianness : Big
Codec ID : 129
Duration : 1h 54mn
Bit rate mode : Constant
Bit rate : 384 Kbps
Channel(s) : 6 channels
Channel positions : Front: L C R, Side: L R, LFE
Sampling rate : 48.0 KHz
Compression mode : Lossy
Stream size : 314 MiB (1%)
Скріншоти
Особиста оцінка: 8 - мені сподобалося


Золотий реліз (завантажене не впливає на рейтинг)
 Трекер:    Зареєстрований   

Завантажити / скачати фільм українською



відео для новачків



 Зареєстрований:   2016-03-14 12:52
 Розмір:   26 GB 
 Оцінка фільму:   8.4/10 (Голосів: 5)
   
igor911 
Відео Гуртом
Відео Гуртом


З нами з: 18.01.08
Востаннє: 09.12.16
Повідомлень: 5198

2016-03-14 15:10  
umka1m,
1) на майбутнє став постери з http://posters.hurtom.com не повнорозмірні, а зменшену до 550px копію з посиланням на оригінал - копіюй код з поля "ББ-код" сторінки постера http://posters.hurtom.com/movies/sanandreas.jpg.html

Код:
[url=http://posters.hurtom.com/albums/movies/sanandreas.jpg][img]http://posters.hurtom.com/cache/movies/sanandreas_550.jpg[/img][/url]

2) вказуй звукові доріжкисубтитри у порядку їх розміщення у контейнері, в даному випадку перша оригінальна доріжка, друга - українська.

Додано через 3 хвилини 15 секунд:

*тут я виправив ці два момента і назву.

А чому не додав є укр.форсовані та оригінальні саби?

umka1m 
Новенький


З нами з: 06.03.15
Востаннє: 08.12.16
Повідомлень: 10

2016-03-16 18:04  
igor911
Цитата:
тут я виправив ці два момента і назву

Добре, дякую.
Цитата:
А чому не додав є укр.форсовані та оригінальні саби?

та щось не зрозумів їх актуальність, до чого вони у цьому фільм... а ось оригінал треба було.

Ваш часовий пояс: GMT + 2 Години

Нова тема   Відповісти