Завантажити та скачати торренти українською


Під маскою / Beyond The Mask (2015) 720p Eng | Sub Ukr/Eng

Нові коментарі

Нова тема   Відповісти
Останній раз роздавалося amazja (2016-12-08)
Автор Повідомлення
Anonymous 







2016-03-13 17:57  
Під маскою / Beyond The Mask (2015) 720p Eng | Sub Ukr/Eng

Під маскою / Beyond The Mask (2015) 720p Eng | Sub Ukr/Eng


Жанр: екшн, драма
Країна: США



Кінокомпанія: Burns Family Studios
Режисер: Чад Барнс
Актори: Ендрю Чейні, Джон Ріс-Девіс, Кара Кіллмер, Адетокумбо Маккормак, Стів Блеквуд, Томас Д. Махард.

Сюжет:

Прагнучи змінити своє життя , вбивця Ост - Індської компанії ховається від свого минулого в тихому англійському селі , надівши мантію англіканського священика . Але це маскування триває не довго , коли улюблена жінка і війна змушують його показати , хто він є насправді .


Тривалість: 01:44:46
Якість:
Відео:
кодек:
розмір кадру: 1280x536
бітрейт: 5385 кб/с

Аудіо:
мова: англійська
переклад: оригінал
бітрейт: 448 кб/с
кодек:

Субтитри:
мова: українська (джерело Blu-ray)
тип: програмні (м'які)
формат: *.srt

Субтитри:
мова: англійська (джерело Blu-ray)
тип: програмні (м'які)
формат: *.srt
Скріншоти




Mediainfo
General
Unique ID : 182568230484550530899828141429207429683 (0x89595CB908C4D944B97B107DC11D7233)
Complete name : E:\Beyond The Mask..720p.mkv
Format : Matroska
Format version : Version 4 / Version 2
File size : 4.27 GiB
Duration : 1h 44mn
Overall bit rate : 5 833 Kbps
Encoded date : UTC 2016-03-13 15:35:47
Writing application : mkvmerge v8.8.0 ('Wind at my back') 64bit
Writing library : libebml v1.3.3 + libmatroska v1.4.4
DURATION : 01:37:46.989000000
NUMBER_OF_FRAMES : 982
NUMBER_OF_BYTES : 34357
_STATISTICS_WRITING_APP : mkvmerge v8.8.0 ('Wind at my back') 64bit
_STATISTICS_WRITING_DATE_UTC : 2016-03-13 15:35:47
_STATISTICS_TAGS : BPS DURATION NUMBER_OF_FRAMES NUMBER_OF_BYTES

Video
ID : 1
Format : AVC
Format/Info : Advanced Video Codec
Format profile : [email protected]
Format settings, CABAC : Yes
Format settings, ReFrames : 5 frames
Codec ID : V_MPEG4/ISO/AVC
Duration : 1h 44mn
Bit rate : 5 385 Kbps
Width : 1 280 pixels
Height : 536 pixels
Display aspect ratio : 2.40:1
Frame rate mode : Constant
Frame rate : 23.976 fps
Color space : YUV
Chroma subsampling : 4:2:0
Bit depth : 8 bits
Scan type : Progressive
Bits/(Pixel*Frame) : 0.327
Stream size : 3.86 GiB (90%)
Writing library : core 148 r2597 e86f3a1
Encoding settings : cabac=1 / ref=5 / deblock=1:0:0 / analyse=0x3:0x113 / me=umh / subme=8 / psy=1 / psy_rd=1.00:0.00 / mixed_ref=1 / me_range=16 / chroma_me=1 / trellis=1 / 8x8dct=1 / cqm=0 / deadzone=21,11 / fast_pskip=0 / chroma_qp_offset=-2 / threads=12 / lookahead_threads=2 / sliced_threads=0 / nr=0 / decimate=1 / interlaced=0 / bluray_compat=0 / constrained_intra=0 / bframes=3 / b_pyramid=2 / b_adapt=2 / b_bias=0 / direct=3 / weightb=1 / open_gop=0 / weightp=2 / keyint=250 / keyint_min=23 / scenecut=40 / intra_refresh=0 / rc_lookahead=50 / rc=2pass / mbtree=1 / bitrate=5385 / ratetol=1.0 / qcomp=0.60 / qpmin=0 / qpmax=69 / qpstep=4 / cplxblur=20.0 / qblur=0.5 / ip_ratio=1.40 / aq=1:1.00
Language : English
Default : Yes
Forced : No
DURATION : 01:44:46.489000000
NUMBER_OF_FRAMES : 150725
NUMBER_OF_BYTES : 4229765047
_STATISTICS_WRITING_APP : mkvmerge v8.8.0 ('Wind at my back') 64bit
_STATISTICS_WRITING_DATE_UTC : 2016-03-13 15:35:47
_STATISTICS_TAGS : BPS DURATION NUMBER_OF_FRAMES NUMBER_OF_BYTES

Audio
ID : 2
Format : AC-3
Format/Info : Audio Coding 3
Mode extension : CM (complete main)
Format settings, Endianness : Big
Codec ID : A_AC3
Duration : 1h 44mn
Bit rate mode : Constant
Bit rate : 448 Kbps
Channel(s) : 6 channels
Channel positions : Front: L C R, Side: L R, LFE
Sampling rate : 48.0 KHz
Bit depth : 16 bits
Compression mode : Lossy
Stream size : 336 MiB (8%)
Title : eng
Language : English
Default : No
Forced : No

Text #1
ID : 3
Format : UTF-8
Codec ID : S_TEXT/UTF8
Codec ID/Info : UTF-8 Plain Text
Language : Ukrainian
Default : Yes
Forced : Yes

Text #2
ID : 4
Format : UTF-8
Codec ID : S_TEXT/UTF8
Codec ID/Info : UTF-8 Plain Text
Title : Eng
Language : English
Default : No
Forced : No

Menu
00:00:00.000 : en:00:00:00.000
00:03:14.111 : en:00:03:14.111
00:08:57.037 : en:00:08:57.037
00:18:47.543 : en:00:18:47.543
00:35:08.648 : en:00:35:08.648
00:47:33.017 : en:00:47:33.017
00:57:52.511 : en:00:57:52.511
01:02:02.719 : en:01:02:02.719
01:09:07.810 : en:01:09:07.810
01:17:50.332 : en:01:17:50.332
01:23:49.566 : en:01:23:49.566
01:34:16.860 : en:01:34:16.860
01:44:04.321 : en:01:44:04.321

General
Особиста оцінка: 0 - не дивився


 Трекер:    Зареєстрований   

Завантажити / скачати фільм українською



відео для новачків



 Зареєстрований:   2016-03-13 17:57
 Розмір:   4.27 GB 
 Оцінка фільму:   10/10 (Голосів: 3)
   
1272 
Новенький


З нами з: 25.07.14
Востаннє: 07.12.16
Повідомлень: 8

2016-03-13 18:20  
Доброго вечора скажіть чи буде фільм "Гетьман"?
bohdk 
Відео Гуртом - субтитрування
Відео Гуртом - субтитрування


З нами з: 23.10.09
Востаннє: 07.12.16
Повідомлень: 557

2016-03-13 22:02  
leicheman
Перечитай, будь ласка, свій опис. І надалі не покладай великих надій на гугля. Його переклад залишає бажати кращого.

Форкуш 
VIP


З нами з: 03.02.10
Востаннє: 07.12.16
Повідомлень: 1538

2016-03-13 22:05  
я б транслітерував акторів у релізах...
Anonymous 







2016-03-13 22:18  
Цитата:
bohdk 


та це всім відомо про перекладач,але після витягання сабів з блюру та набирання їх у сапріпі,вже очі замилило мені , то й не помітив тих помилок гугла.

bohdk 
Відео Гуртом - субтитрування
Відео Гуртом - субтитрування


З нами з: 23.10.09
Востаннє: 07.12.16
Повідомлень: 557

2016-03-14 09:21  
leicheman
Я б ще конкретизував поняття вбивці. Маю сумнів, що він "завалив" Happy цілу Ост-індську компанію. Wink (1)

Konfucius 
Управління
Управління


З нами з: 30.09.07
Востаннє: 08.12.16
Повідомлень: 4743

2016-03-14 12:42  
leicheman написано:
Andrew Cheney, John Rhys-Davies, Kara Killmer, Adetokumboh M'Cormack,Steve Blackwood,Thomas D. Mahard, Arden McClure, Alan Madlane.

leicheman написано:
Chad Burns

Це має бути українською.

Бракує кодеку аудіо.

leicheman написано:
720p Eng|Sub/Eng

720p Eng | Sub Ukr/Eng

Треба виправити опис.

Форкуш 
VIP


З нами з: 03.02.10
Востаннє: 07.12.16
Повідомлень: 1538

2016-03-14 18:59  
Ендрю поправте ще...
Ваш часовий пояс: GMT + 2 Години

Нова тема   Відповісти