Завантажити та скачати торренти українською


Оголена зброя / Naked weapon / Chek law dak gung (2002) 720p Ukr/Eng/Chi | Sub Eng/Chi

Нові коментарі

Нова тема   Відповісти
Автор Повідомлення
Anonymous 







2016-03-13 13:37  
Оголена зброя / Naked weapon / Chek law dak gung (2002) 720p Ukr/Eng/Chi | Sub Eng/Chi



Альтернативні постери









Жанр: бойовик, кримінальний, драма, романтичний, трилер
Країна: Гонконг



Кінокомпанія: Media Asia Films, Jing's Production
Режисер: Сью-Тунг Чінг / Siu-Tung Ching
Актори: Марит Торезен / Marit Thoresen, Алмен Вонг Пуй-Ха / Almen Pui-Ha Wong, Деніел Ву / Daniel Wu, Кай Ян Квок / Kai Yan Kwok, Рені Ніколь Роммесвінкель / Renee Nichole Rommeswinkel, Мо Ка Лаі / Mo Ka Lai, Огустен Агуерреберрі / Agustin Aguerreberry, Меґґі Кью / Maggie Q, Аня / Anya, Джевел Лі / Jewel Lee, Пей Пей Ченг / Pei-Pei Cheng, Девід Джон Сондерс / David John Saunders, Хой Лінь / Hoi Lin, Вінсент Чік / Mo-Chan Chik та інші

Сюжет:
Після смерті кращого агента, таємнича жінка викрадає сорок дівчаток з вулиць і переправляє їх на віддалений острів. За декілька років вона виховує з них елітних вбивць. Ті з дівчат, що вижили після смертельного відбору, стануть її страшною зброєю...


Рейтинг MPAA: R - особам до 17 років обов'язкова присутність батьків або дорослого опікуна
Вікова категорія: 18+

Тривалість: 01:30:00
Якість: 720p
Відео:
кодек:
розмір кадру: 1280 х 710
бітрейт: 11 Мбіт/с

Аудіо # 1:
мова: українська
переклад: двоголосий закадровий
ролі озвучили: Олег Лепенець і Людмила Ардельян
кодек: 2.0
бітрейт: 192 кбіт/с

Аудіо # 2:
мова: англійська
переклад: оригінал
кодек: 5.1
бітрейт: 640 кбіт/с

Аудіо # 3:
мова: китайська
переклад: оригінал
кодек: 5.1
бітрейт: 640 кбіт/с

Субтитри # 1:
мова: англійська
тип: програмні (м'які)
формат: *.srt

Субтитри # 2:
мова: китайська
тип: програмні (м'які)
формат: *.srt

Збережено оригінальні розділи, як на Blu-ray.
MediaInfo
Код:
Complete name               : Naked Weapon (Chek law dak gung) (2002) [Ukr,Eng,Chi sub.Eng,Chi] 720p [Hurtom&HDClub].mkv
Format                      : Matroska
Format version              : Version 4 / Version 2
File size                   : 7.93 GiB
Duration                    : 1h 31mn
Overall bit rate            : 12.5 Mbps
Movie name                  : Оголена зброя / Naked Weapon / Chek law dak gung (2002) 720p [Hurtom&HDClub] by igor911
Encoded date                : UTC 2016-03-13 09:50:51
Writing application         : mkvmerge v8.9.0 ('Father Daughter') 64bit
Writing library             : libebml v1.3.3 + libmatroska v1.4.4
Attachements                : cover.jpg

Video
ID                          : 1
Format                      : AVC
Format/Info                 : Advanced Video Codec
Format profile              : [email protected]
Format settings, CABAC      : Yes
Format settings, ReFrames   : 9 frames
Codec ID                    : V_MPEG4/ISO/AVC
Duration                    : 1h 31mn
Bit rate                    : 11.0 Mbps
Width                       : 1 280 pixels
Height                      : 710 pixels
Display aspect ratio        : 16:9
Frame rate mode             : Constant
Frame rate                  : 24.000 fps
Color space                 : YUV
Chroma subsampling          : 4:2:0
Bit depth                   : 8 bits
Scan type                   : Progressive
Bits/(Pixel*Frame)          : 0.504
Stream size                 : 6.99 GiB (88%)
Title                       : Оголена зброя / Naked weapon / Chek law dak gung (2002) 720p [HDClub-SbR]
Writing library             : core 148 r2665+53 6629127 t_mod_Custom [[email protected] X86_64]
Encoding settings           : cabac=1 / ref=9 / deblock=1:-3:-3 / analyse=0x3:0x133 / me=umh / subme=10 / psy=1 / fade_compensate=0.00 / psy_rd=1.10:0.05 / mixed_ref=1 / me_range=24 / chroma_me=1 / trellis=2 / 8x8dct=1 / cqm=0 / deadzone=21,11 / fast_pskip=0 / chroma_qp_offset=-3 / threads=6 / lookahead_threads=1 / sliced_threads=0 / nr=0 / decimate=1 / interlaced=0 / bluray_compat=0 / constrained_intra=0 / fgo=0 / bframes=9 / b_pyramid=2 / b_adapt=2 / b_bias=0 / direct=3 / weightb=1 / open_gop=0 / weightp=2 / keyint=250 / keyint_min=24 / scenecut=40 / intra_refresh=0 / rc=2pass / mbtree=0 / bitrate=11000 / ratetol=1.0 / qcomp=0.65 / qpmin=0:0:0 / qpmax=69:69:69 / qpstep=4 / cplxblur=20.0 / qblur=0.5 / ip_ratio=1.30 / pb_ratio=1.20 / aq=1:0.65 / aq-sensitivity=10.00 / aq-factor=1.00:1.00:1.00 / aq2=1:0.60 / aq2-sensitivity=15.00 / aq2-factor=1.00:1.00:1.00 / aq3=1:[0.55:0.55]:[0.55:0.55]:[0.55:0.55]:[0.55:0.55] / aq3-sensitivity=10.00 / aq3-factor=[1.00:1.00]:[1.00:1.00]:[1.00:1.00] / aq3-boundary=192:64:24
Language                    : English
Default                     : Yes
Forced                      : No
Color range                 : Limited
Matrix coefficients         : BT.709

Audio #1
ID                          : 2
Format                      : AC-3
Format/Info                 : Audio Coding 3
Mode extension              : CM (complete main)
Format settings, Endianness : Big
Codec ID                    : A_AC3
Duration                    : 1h 30mn
Bit rate mode               : Constant
Bit rate                    : 192 Kbps
Channel(s)                  : 2 channels
Channel positions           : Front: L R
Sampling rate               : 48.0 KHz
Frame rate                  : 31.250 fps (1536 spf)
Compression mode            : Lossy
Stream size                 : 125 MiB (2%)
Title                       : DVO [2+2] 2.0 192 kbps [Hurtom-BILko]
Language                    : Ukrainian
Default                     : Yes
Forced                      : No

Audio #2
ID                          : 3
Format                      : AC-3
Format/Info                 : Audio Coding 3
Mode extension              : CM (complete main)
Format settings, Endianness : Big
Codec ID                    : A_AC3
Duration                    : 1h 30mn
Bit rate mode               : Constant
Bit rate                    : 640 Kbps
Channel(s)                  : 6 channels
Channel positions           : Front: L C R, Side: L R, LFE
Sampling rate               : 48.0 KHz
Frame rate                  : 31.250 fps (1536 spf)
Compression mode            : Lossy
Stream size                 : 417 MiB (5%)
Language                    : English
Default                     : No
Forced                      : No

Audio #3
ID                          : 4
Format                      : AC-3
Format/Info                 : Audio Coding 3
Mode extension              : CM (complete main)
Format settings, Endianness : Big
Codec ID                    : A_AC3
Duration                    : 1h 30mn
Bit rate mode               : Constant
Bit rate                    : 640 Kbps
Channel(s)                  : 6 channels
Channel positions           : Front: L C R, Side: L R, LFE
Sampling rate               : 48.0 KHz
Frame rate                  : 31.250 fps (1536 spf)
Compression mode            : Lossy
Stream size                 : 417 MiB (5%)
Language                    : Chinese
Default                     : No
Forced                      : No

Text #1
ID                          : 5
Format                      : UTF-8
Codec ID                    : S_TEXT/UTF8
Codec ID/Info               : UTF-8 Plain Text
Duration                    : 1h 27mn
Bit rate                    : 32 bps
Count of elements           : 733
Stream size                 : 20.8 KiB (0%)
Language                    : English
Default                     : No
Forced                      : No

Text #2
ID                          : 6
Format                      : UTF-8
Codec ID                    : S_TEXT/UTF8
Codec ID/Info               : UTF-8 Plain Text
Duration                    : 1h 27mn
Bit rate                    : 31 bps
Count of elements           : 730
Stream size                 : 20.0 KiB (0%)
Language                    : Chinese
Default                     : No
Forced                      : No

Menu
00:00:00.000                : en:00:00:00.000
00:05:00.000                : en:00:05:00.000
00:10:00.000                : en:00:10:00.000
00:15:00.000                : en:00:15:00.000
00:20:00.000                : en:00:20:00.000
00:25:00.000                : en:00:25:00.000
00:30:00.000                : en:00:30:00.000
00:35:00.000                : en:00:35:00.000
00:40:00.000                : en:00:40:00.000
00:45:00.000                : en:00:45:00.000
00:50:00.000                : en:00:50:00.000
00:55:00.000                : en:00:55:00.000
01:00:00.000                : en:01:00:00.000
01:05:00.000                : en:01:05:00.000
01:10:00.000                : en:01:10:00.000
01:15:00.000                : en:01:15:00.000
01:20:00.000                : en:01:20:00.000
01:25:00.000                : en:01:25:00.000
01:30:00.000                : en:01:30:00.000


Порівняння скріншотів

Оригінал<---------->Ріп









Джерело: &
українська доріжка - BILko; інформація про озвучення - Віктор (всі - Гуртом).

ЗАЛИШАЙТЕСЬ ЯКОМОГА ДОВШЕ НА РОЗДАЧІ!
СКАЧАВ САМ - ДАЙ СКАЧАТИ ІНШИМ


Срібний реліз (на рейтинг впливає 50% завантаженого)
 Трекер:    Зареєстрований   

Завантажити / скачати фільм українською



відео для новачків



 Зареєстрований:   2016-03-13 13:37
 Розмір:   7.93 GB 
 Оцінка фільму:   2.5/10 (Голосів: 14)
   
Інші релізи
Ваш часовий пояс: GMT + 2 Години

Нова тема   Відповісти