Завантажити та скачати торренти українською


Паралельні світи / Upside Down (2012) 1080p 3D [Half OverUnder] Ukr/Eng

Нові коментарі

Нова тема   Відповісти
Автор Повідомлення
-VipeR- 
VIP


З нами з: 17.07.08
Востаннє: 05.12.16
Повідомлень: 275

2016-03-13 11:28  
Паралельні світи / Upside Down (2012) 1080p 3D [Half OverUnder] Ukr/Eng

Паралельні світи / Upside Down (2012) 1080p 3D [Half OverUnder] Ukr/Eng


Жанр: драма, фентезі, романтичний, фантастика
Країна: Канада, Франція



Кінокомпанія: Upside Down Films, Les Films Upside Down, Onyx Films
Режисер: Хуан Соланас / Juan Solanas
Актори: Кірстен Данст / Kirsten Dunst, Джим Стерджесс / Jim Sturgess, Тімоті Сполл / Timothy Spall, Блу Манкума / Blu Mankuma, Ніколас Роуз / Nicholas Rose, Джеймс Кідні / James Kidnie, Власта Врана / Vlasta Vrana, Кейт Троттер / Kate Trotter, Голлі О'Браєн / Holly O'Brien, Елліот Ларсон-Ґілмор / Elliott Larson-Gilmore

Сюжет:
Закохані Адам і Еден живуть у різних світах з дивними фізичними і ще більш дивними юридичними законами. Їх світи розташовані один навпроти одного, люди одного світу живуть буквально догори дригом над жителями іншого. Верхній світ для багатих, і Еден живе в ньому. Переміщення людей між світами жорстко контролюється. Адам змушений животіти в убогості нижнього світу, але заради любові він готовий порушити заборону і перейти з одного світу в інший.


Тривалість: 01:48:06
Якість: 1080p 3D [HalfOverUnder] [crop] Dag13
Відео:
кодек:
розмір кадру: 1920 х 1080
бітрейт: 20.7 мб/с
Зліва і справа обрізано по 248 пікселів, для перегляду на звичайних тв без чорних смуг

Аудіо # 1:
мова: українська
переклад: професійний дубльований
кодек: 5.1
бітрейт: 448 кб/с

Аудіо # 2:
мова: англійська
переклад: оригінал
кодек: 5.1
бітрейт: 640 кб/с

Джерело озвучення:
MediaInfo
Код:
General
Unique ID                      : 213675659874531105405267472837288526193 (0xA0C06F678E9F094D86774806C17A0171)
Complete name                  : D:\3D\Upside Down (2012) 1080p 3D [HalfOverUnder] [Ukr & Eng].mkv
Format                         : Matroska
Format version                 : Version 4 / Version 2
File size                      : 16.8 GiB
Duration                       : 1h 48mn
Overall bit rate               : 22.2 Mbps
Movie name                     : Паралельні світи / Upside Down (2012) у 3D
Encoded date                   : UTC 2016-03-13 08:51:24
Writing application            : mkvmerge v8.8.0 ('Wind at my back') 64bit
Writing library                : libebml v1.3.3 + libmatroska v1.4.4
DURATION                       : 01:48:06.336000000
NUMBER_OF_FRAMES               : 202698
NUMBER_OF_BYTES                : 518906880
_STATISTICS_WRITING_APP        : mkvmerge v8.8.0 ('Wind at my back') 64bit
_STATISTICS_WRITING_DATE_UTC   : 2016-03-13 08:51:24
_STATISTICS_TAGS               : BPS DURATION NUMBER_OF_FRAMES NUMBER_OF_BYTES

Video
ID                             : 1
Format                         : AVC
Format/Info                    : Advanced Video Codec
Format profile                 : [email protected]
Format settings, CABAC         : Yes
Format settings, ReFrames      : 4 frames
Codec ID                       : V_MPEG4/ISO/AVC
Duration                       : 1h 48mn
Bit rate                       : 20.7 Mbps
Width                          : 1 920 pixels
Height                         : 1 080 pixels
Display aspect ratio           : 16:9
Frame rate mode                : Constant
Frame rate                     : 23.976 fps
Color space                    : YUV
Chroma subsampling             : 4:2:0
Bit depth                      : 8 bits
Scan type                      : Progressive
Bits/(Pixel*Frame)             : 0.416
Stream size                    : 15.6 GiB (93%)
Writing library                : core 120 r2145 748fe16
Encoding settings              : cabac=1 / ref=4 / deblock=1:-3:-3 / analyse=0x3:0x113 / me=umh / subme=9 / psy=1 / psy_rd=1.00:0.00 / mixed_ref=1 / me_range=16 / chroma_me=1 / trellis=2 / 8x8dct=1 / cqm=0 / deadzone=21,11 / fast_pskip=1 / chroma_qp_offset=-2 / threads=9 / sliced_threads=0 / nr=0 / decimate=1 / interlaced=0 / bluray_compat=0 / constrained_intra=0 / bframes=6 / b_pyramid=2 / b_adapt=2 / b_bias=0 / direct=3 / weightb=1 / open_gop=0 / weightp=2 / keyint=250 / keyint_min=23 / scenecut=40 / intra_refresh=0 / rc_lookahead=60 / rc=crf / mbtree=1 / crf=17.0 / qcomp=0.60 / qpmin=1 / qpmax=69 / qpstep=4 / ip_ratio=1.40 / aq=1:1.00
Language                       : English
Default                        : No
Forced                         : No
DURATION                       : 01:48:06.355000000
NUMBER_OF_FRAMES               : 155517
NUMBER_OF_BYTES                : 17134198724
_STATISTICS_WRITING_APP        : mkvmerge v8.8.0 ('Wind at my back') 64bit
_STATISTICS_WRITING_DATE_UTC   : 2016-03-13 08:51:24
_STATISTICS_TAGS               : BPS DURATION NUMBER_OF_FRAMES NUMBER_OF_BYTES

Audio #1
ID                             : 2
Format                         : AC-3
Format/Info                    : Audio Coding 3
Mode extension                 : CM (complete main)
Format settings, Endianness    : Big
Codec ID                       : A_AC3
Duration                       : 1h 48mn
Bit rate mode                  : Constant
Bit rate                       : 448 Kbps
Channel count                  : 6 channels
Channel positions              : Front: L C R, Side: L R, LFE
Sampling rate                  : 48.0 KHz
Bit depth                      : 16 bits
Compression mode               : Lossy
Stream size                    : 346 MiB (2%)
Language                       : Ukrainian
Default                        : Yes
Forced                         : Yes

Audio #2
ID                             : 3
Format                         : AC-3
Format/Info                    : Audio Coding 3
Mode extension                 : CM (complete main)
Format settings, Endianness    : Big
Codec ID                       : A_AC3
Duration                       : 1h 48mn
Bit rate mode                  : Constant
Bit rate                       : 640 Kbps
Channel count                  : 6 channels
Channel positions              : Front: L C R, Side: L R, LFE
Sampling rate                  : 48.0 KHz
Bit depth                      : 16 bits
Compression mode               : Lossy
Stream size                    : 495 MiB (3%)
Language                       : English
Default                        : No
Forced                         : No
Скріншоти
Джерело: &
Особиста оцінка: 9 - давно не бачив настільки якісне кіно

Відео для перегляду на 3D обладнанні!


 Трекер:    Зареєстрований   

Завантажити / скачати фільм українською



відео для новачків



 Зареєстрований:   2016-03-13 11:28
 Розмір:   16.78 GB 
 Оцінка фільму:   10/10 (Голосів: 5)
   
Інші релізи
jloohatik 
Новенький


З нами з: 10.09.11
Востаннє: 28.11.16
Повідомлень: 19

2016-05-03 17:27  
Нащо обрізати стрічку? Якщо людям необхідно то можуть розширити собі на повний екран самі, не потрібно псувати стрічку іншим, ще й 3д
Anatol_y 
Новенький


З нами з: 30.04.12
Востаннє: 04.12.16
Повідомлень: 5

2016-11-01 23:16  
стереопару неможливо "розтягнути" на весь екран, а у кого і можливо, то із спотворенням (розтягненням, звуженням)

Додано через 2 хвилини 11 секунд:

Де взяти цю аудіодоріжку?

Ваш часовий пояс: GMT + 2 Години

Нова тема   Відповісти