Завантажити та скачати торренти українською


Ноттінґ Гілл (Нотінґ-Хілл, Нотінг Хілл) / Notting Hill (1999) 720p Ukr/Eng

Нові коментарі

Нова тема   Відповісти
Автор Повідомлення
Anonymous 







2016-03-13 01:31  
Ноттінґ Гілл / Notting Hill (1999) 720p Ukr/Eng



Жанр: комедія, драма, романтичний
Країна: Велика Британія, США



Кінокомпанія: Polygram Filmed Entertainment, Working Title Films, Bookshop Productions, Notting Hill Pictures
Режисер: Роджер Мічелл / Roger Michell
Актори: Джулія Робертс / Julia Roberts, Г’ю Ґрант / Hugh Grant, Річард МакКейб / Richard McCabe, Ріс Іванс / Rhys Ifans, Джеймс Дрейфус / James Dreyfus, Ділан Моран / Dylan Moran, Роджер Фрост / Roger Frost, Генрі Ґудман / Henry Goodman, Джуліан Райнд-Татт / Julian Rhind-Tutt, Лорелей Кінґ / Lorelei King, Джон Шрапнел / John Shrapnel, Кларк Пітерс / Clarke Peters, Міша Бартон / Mischa Barton

Сюжет:
Життя простого власника книгарні змінюється, коли він зустрічає найвідомішу кінозірку в світі.


Рейтинг MPAA: PG-13 - дітям до 13 років перегляд не бажаний
Вікова категорія: 12+

Тривалість: 02:03:57
Якість: 720p
Відео:
кодек:
розмір кадру: 1280 х 544
бітрейт: 4538 кбіт/с [crf=16.7]

Аудіо # 1:
мова: українська
переклад: багатоголосий закадровий
ролі озвучили: Г'ю Ґрант — Володимир Терещук, Юрій Гребельник, Людмила Чиншева і ще один жіночий голос
кодек: 2.0
бітрейт: 192 кбіт/с

Аудіо # 2:
мова: англійська
переклад: оригінал
кодек: 5.1
бітрейт: 640 кбіт/с

Субтитри:
мова: англійська
тип: програмні (м'які)
формат: *.srt
MediaInfo
Код:
Complete name               : Notting Hill (1999) [Ukr,Eng sub.Eng] 720p [Hurtom].mkv
Format                      : Matroska
Format version              : Version 4 / Version 2
File size                   : 4.74 GiB
Duration                    : 2h 3mn
Overall bit rate            : 5 479 Kbps
Movie name                  : Нотінґ-Хілл / Нотінґ-Гілл / Notting Hill (1999) [Ukr,Eng sub.Eng] 720p [Hurtom-igor911]
Encoded date                : UTC 2016-03-12 21:26:06
Writing application         : mkvmerge v8.9.0 ('Father Daughter') 64bit
Writing library             : libebml v1.3.3 + libmatroska v1.4.4
Attachements                : cover.jpg
DURATION                    : 02:03:30.931000000
NUMBER_OF_FRAMES            : 1753
NUMBER_OF_BYTES             : 63664
_STATISTICS_WRITING_APP     : mkvmerge v8.9.0 ('Father Daughter') 64bit
_STATISTICS_WRITING_DATE_UT : 2016-03-12 21:26:06
_STATISTICS_TAGS            : BPS DURATION NUMBER_OF_FRAMES NUMBER_OF_BYTES

Video
ID                          : 1
Format                      : AVC
Format/Info                 : Advanced Video Codec
Format profile              : [email protected]
Format settings, CABAC      : Yes
Format settings, ReFrames   : 9 frames
Codec ID                    : V_MPEG4/ISO/AVC
Duration                    : 2h 3mn
Bit rate                    : 4 538 Kbps
Width                       : 1 280 pixels
Height                      : 544 pixels
Display aspect ratio        : 2.35:1
Frame rate mode             : Constant
Frame rate                  : 23.976 fps
Color space                 : YUV
Chroma subsampling          : 4:2:0
Bit depth                   : 8 bits
Scan type                   : Progressive
Bits/(Pixel*Frame)          : 0.272
Stream size                 : 3.93 GiB (83%)
Title                       : Нотінґ-Хілл / Нотінґ-Гілл / Notting Hill (1999) 720p [STarankov]
Writing library             : core 130 r2273 b3065e6
Encoding settings           : cabac=1 / ref=9 / deblock=1:-1:-1 / analyse=0x3:0x113 / me=umh / subme=9 / psy=1 / psy_rd=1.00:0.15 / mixed_ref=1 / me_range=24 / chroma_me=1 / trellis=2 / 8x8dct=1 / cqm=0 / deadzone=21,11 / fast_pskip=1 / chroma_qp_offset=-3 / threads=6 / lookahead_threads=1 / sliced_threads=0 / nr=0 / decimate=1 / interlaced=0 / bluray_compat=0 / constrained_intra=0 / bframes=8 / b_pyramid=2 / b_adapt=2 / b_bias=0 / direct=1 / weightb=0 / open_gop=0 / weightp=2 / keyint=230 / keyint_min=23 / scenecut=40 / intra_refresh=0 / rc=crf / mbtree=0 / crf=16.7 / qcomp=0.60 / qpmin=0 / qpmax=69 / qpstep=4 / ip_ratio=1.40 / pb_ratio=1.30 / aq=1:1.00
Language                    : English
Default                     : Yes
Forced                      : No
DURATION                    : 02:03:57.430000000
NUMBER_OF_FRAMES            : 178320
NUMBER_OF_BYTES             : 4317933454
_STATISTICS_WRITING_APP     : mkvmerge v8.9.0 ('Father Daughter') 64bit
_STATISTICS_WRITING_DATE_UT : 2016-03-12 21:26:06
_STATISTICS_TAGS            : BPS DURATION NUMBER_OF_FRAMES NUMBER_OF_BYTES

Audio #1
ID                          : 2
Format                      : AC-3
Format/Info                 : Audio Coding 3
Mode extension              : CM (complete main)
Format settings, Endianness : Big
Codec ID                    : A_AC3
Duration                    : 2h 3mn
Bit rate mode               : Constant
Bit rate                    : 192 Kbps
Channel(s)                  : 2 channels
Channel positions           : Front: L R
Sampling rate               : 48.0 KHz
Compression mode            : Lossy
Stream size                 : 170 MiB (4%)
Title                       : MVO [NLO] 2.0 192 kbps [Hurtom-ninenine]
Language                    : Ukrainian
Default                     : Yes
Forced                      : No

Audio #2
ID                          : 3
Format                      : AC-3
Format/Info                 : Audio Coding 3
Mode extension              : CM (complete main)
Format settings, Endianness : Big
Codec ID                    : A_AC3
Duration                    : 2h 3mn
Bit rate mode               : Constant
Bit rate                    : 640 Kbps
Channel(s)                  : 6 channels
Channel positions           : Front: L C R, Side: L R, LFE
Sampling rate               : 48.0 KHz
Compression mode            : Lossy
Stream size                 : 567 MiB (12%)
Title                       : Original 5.1 640 kbps
Language                    : English
Default                     : No
Forced                      : No

Text
ID                          : 4
Format                      : UTF-8
Codec ID                    : S_TEXT/UTF8
Codec ID/Info               : UTF-8 Plain Text
Language                    : English
Default                     : No
Forced                      : No



Джерела та подяки: &
українська доріжка - ninenine - зведення, РОМЕО - запис з ТБ; фільмографії акторів та інформація про озвучення - Віктор (всі - Гуртом).





ЗАЛИШАЙТЕСЬ ЯКОМОГА ДОВШЕ НА РОЗДАЧІ!
СКАЧАВ САМ - ДАЙ СКАЧАТИ ІНШИМ


Срібний реліз (на рейтинг впливає 50% завантаженого)
 Трекер:    Зареєстрований   

Завантажити / скачати фільм українською



відео для новачків



 Зареєстрований:   2016-03-13 01:31
 Розмір:   4.74 GB 
 Оцінка фільму:   4.5/10 (Голосів: 17)
   
Інші релізи
   Ноттінґ Гілл / Notting Hill (1999) Ukr/Eng ninenine  4 / 0   2.02 GB   2016-03-12 16:11 
SHEVA1991 
Поважний учасник


З нами з: 29.11.12
Востаннє: 03.12.16
Повідомлень: 200

2016-03-13 09:19  
Дуже хороший фільм! Дуже дякую за реліз!!!
mancunian 
Новенький


З нами з: 23.10.11
Востаннє: 05.12.16
Повідомлень: 23

2016-03-20 09:22  
Дуже гарний фільм - не розумію чому такий низький рейтинг - ніби навмисне 10/10
Anonymous 







2016-03-20 09:45  
mancunian написано:
ніби навмисне

так і є, боти завелись і на Гуртом. мінусують всі релізи адміністрації та неугодних релізерів.

mancunian 
Новенький


З нами з: 23.10.11
Востаннє: 05.12.16
Повідомлень: 23

2016-03-20 09:51  
igor911
от є ж нації яким інші жить заважають

Anonymous 







2016-03-20 10:12  
mancunian, та це місцевий неадекват гадить, був такий собі сімба/велкамбек/веб-гірник...
Ваш часовий пояс: GMT + 2 Години

Нова тема   Відповісти